Сегодня идет свободное скачивание без начисления Download

Результатов поиска: 500

Автор Сообщение

}{@R0N

Пост 10-Ноя-2018 21:06

[Цитировать]

Андрей Ракицкий | Гипноз для снижения веса по методу GSI (5 сеансов) - Автор: Андрей Ракицкий
Жанр: Гипнотическая сессия
Продолжительность: 2:18:52
Формат (аудиокодек): MP3
Битрейт аудио: 256 Kbps
Описание:
Воздействуя на глубинные настройки работы вашего организма, мы активизируем созданные самой природой процессы интенсивного использования жировой ткани. Организм начнет работать так, как это бывает в кризисных ситуациях, связанных с вынужденным ограничением или лишением пищи. Это обеспечит быстрое и физиологичное снижение веса без эффекта его обратного набора.
Каждый из сеансов вы можете прослушивать независимо друг от друга, по своему усмотрению.

geraman

Пост 09-Ноя-2018 22:48

[Цитировать]

Вот это подгон!От души!

}{@R0N

Пост 05-Ноя-2018 19:56

[Цитировать]

Михаил Бычков | Супер Cinema 4D- Автор (режиссер): Михаил Бычков
Жанр: Видеоуроки
Описание:
Самый полный обучающий курс по созданию 3D-графики и визуальных эффектов в программе CINEMA 4D от команды VideoSmile.Курс состоит из 117 занятий, объединенных в 12 глав. Общая длительность видео уроков курса составляет 43 часа 30 минут. В курсе детально рассматриваются все основные возможности и инструменты программы Cinema 4D с самого нуля до профессиональных вершин.
Продолжительность: 43:30:00
Качество видео: PCRec
Видео: AVC/H.264, 1920x1080, ~1291 Kbps
Аудио: AAC, 2 Ch, 128 Kbps

Содержание курса

Глава 1. Знакомство с программой Cinema 4D.
14 занятий (4 ч. 11 мин.)
Первая глава представляет собой вводный мини-курс по программе Cinema 4D. Эта глава рассчитана на тех, кто не знаком с 3D-графикой и программой Cinema 4D в частности.
В уроках этой главы вы познакомитесь с базовыми понятиями трехмерной графики и в первый раз запустите программу Cinema 4D. В ходе этой главы вы изучите интерфейс и базовые инструменты этой программы. Познакомитесь с основами моделирования, текстурирования, анимации и рендера.
Эта глава не содержит скучной теории и все новые знания вы будете получать в ходе практической работы над созданием трехмерной анимированной сцены с поездом.-Глава 2. Интерфейс, настройки и базовые функции программы
8 занятий (1 ч. 46 мин.)
В начале этой главы мы подробно разберем интерфейс программы, научимся настраивать его «под себя», а также изучим все основные панели и окна.
Далее мы разберемся из чего может состоять наш проект. Поговорим о системе слоев и иерархии проекта. В итоге у вас в голове сформируется общее представление структуры проекта. Познакомимся с различными тегами, а также поговорим о привязках. Эта глава является базовой для всего курса, так как здесь показываются приемы, которые используются на постоянной основе в любых проектах.
Напоследок установим полезные расширения для более продуктивной работы в программе.-Глава 3. Параметрическое моделирование
14 занятий (3 ч. 24 мин.)
Вообще моделирование бывает разным. Если вам нужно создать какую-то несложную модель, то лучше всего это сделать при помощи примитивов, генераторов и деформеров. Да, вы будете ограничены в возможностях, но зато вы сможете очень быстро создать необходимую геометрию настраивая заранее заданные параметры.
Такой вид моделирования несомненно проще и быстрее полигонального моделирования (когда вы создаете геометрию, работая с полигонами, ребрами и точками).
В этой главе вы изучите все инструменты параметрического моделирования, которые потребуются вам в дальнейшей работе.-Глава 4. Деформеры
14 занятий (1 ч. 54 мин.)
Вы наверное уже догадываетесь, что для создания более сложных и эффектных трехмерных сцен обычных примитивов (куб, сфера, цилиндр и др.) будет недостаточно. Возникает вопрос, как же вырваться за рамки стандартных фигур и создать из примитивов что-то более интересное? Здесь нам на помощь приходят деформеры.
Деформеры – это специальные инструменты, которые, как понятно из названия, могут деформировать геометрию. Таким образом, мы можем изменять любые объекты и создавать совершенно новую геометрию. Нужно согнуть какой-то объект – вот вам деформер Bend, нужно что-то скрутить – деформер Twist, если хотите что-то взорвать - деформер Explosion.
В этой главе мы рассмотрим самые полезные и часто используемые деформеры, которые облегчают создание сложных и нестандартных моделей.-Глава 5. Практика
1 занятие (42 мин.)
В предыдущих главах вы узнали много нового. Теперь же давайте попробуем на практическом примере закрепить все полученные знания.
В этой главе под чутким руководством автора вы с нуля создадите полноценную композицию с наушниками на основе сплайнов, параметрического моделирования и деформеров.-Глава 6. Свет и тень
4 занятия (1 ч. 53 мин.)
Свет и тень – важные составляющие любой композиции, потому что именно они помогают нам создавать по-настоящему реалистичные 3D-сцены. Достаточно лишь правильно настроить освещение сцены и она может сразу преобразиться.
Эта глава дает максимально полный обзор всех вариантов освещения сцены в Cinema 4D. Вы познакомитесь со всеми видами источников света, начиная от Солнца и заканчивая обычной лампочкой. Вы узнаете различные параметры источников света, научитесь работать с тенями, а также освоите приемы и фишки по освещению интерьеров и экстерьеров.
В ходе этой главы мы соберем несколько световых сетапов, которые позволят вам в дальнейшем легко и быстро осветить любую модель.-Глава 7. Материалы и текстуры
10 занятий (3 ч. 18 мин.)
Вы, наверное, уже знаете, что если в Cinema 4D создать обычный трехмерный куб, то он будет серым и невзрачным. Как же сделать так, чтобы этот куб состоял из красивого камня или стекла? Ответ очень прост: нужно создать соответствующий материал.
Для многих материалы в Cinema 4D – сложная и непонятная тема. Но в ходе изучения данной главы вы поймете, что работа с материалами – это очень интересное занятие. В этой главе мы разберем все методы создания реалистичных материалов, начиная с самых азов. Вы научитесь с нуля создавать собственные материалы и применять их к своим объектам. Мы рассмотрим создание пластика, различных металлов, стекла и многих других часто используемых материалов. В уроках этой главы мы соберем собственную библиотеку готовых материалов, которые вы сможете использовать в последующих проектах.-Глава 8. Рендер в Cinema 4D
11 занятий (3 ч. 1 мин.)
После того как вы создали какую-нибудь трехмерную сцену, вам нужно ее отрендерить, чтобы получить финальное изображение или видео. От выбора рендера и правильной его настройки зависит то, насколько реалистичный и визуально привлекательный результат вы получите.
В этой главе вы научитесь работать со всеми стандартными рендерами: Standard Render, Physical Render, AMD ProRender. Разберем плюсы и минусы каждого из них, посмотрим как оптимизировать настройки рендера, чтобы не ждать красивых результатов долгими часами. Помимо этого, вы научитесь делать постобработку отрендеренного материала в After Effects, что позволит добавить еще большего реализма вашим работам и сделает их еще привлекательнее.-Глава 9. Анимация в Cinema 4D. MoGraph
18 занятий (5 ч. 14 мин.)
Cinema 4D очень популярная программа среди моушн-дизайнеров. Большая часть роликов с моушн-графикой, которые собирают тысячи лайков, созданы именно в Cinema 4D и After Effects. Чем же она заслужила такую любовь? Все дело в том, что Cinema 4D имеет развитую функциональность, нацеленную на создание потрясающей анимации. Особенно стоит выделить модуль MoGraph, который встроен в Cinema 4D. Ради этого модуля многие CG-художники и дизайнеры начинают использовать Cinema 4D вместо другого 3D-софта.
MoGraph – это отдельный блок с инструментами, позволяющими решать и автоматизировать сложные анимационные задачи. На сегодняшний день эти инструменты используются почти в каждом анимационном ролике. В этой главе мы рассмотрим все самые необходимые генераторы и эффекторы из блока MoGraph. Соберем несколько эффектных анимированных композиций с нуля. Разберем принципы анимации и работу с Timeline в Cinema 4D.-Глава 10. Динамика
10 занятий (3 ч. 37 мин.)
Мало кто знает, но Cinema 4D обладает широкими возможностями по созданию реалистичной динамики. Другими словами, в программе Cinema 4D вы можете заставить объекты в сцене взаимодействовать друг с другом, подчиняясь законам физики. Объекты могут падать, отскакивать, соударяться друг с другом и даже разбиваться на части. При этом они могут быть подвержены воздействию различных сил, например гравитации, силы трения, ветра и т. д.
Это глава посвящена динамике и различным физическим симуляциям в Cinema 4D. Здесь мы разберем взаимодействие твердых тел, мягких тел, тканей и частиц. Посмотрим, как объединить динамику и MoGraph для создания крутых анимационных эффектов. В этой главе будет разобрано больше всего практических примеров, начиная от создания реалистичных разрушений и заканчивая целыми анимационными проектами.-Глава 11. Продвинутое моделирование
18 занятий (12 ч. 25 мин.)
В предыдущих главах мы изучили базовые техники моделирования в Cinema 4D. Но для создания сложных 3D-моделей этих знаний будет недостаточно. Поэтому в этой главе мы углубимся в тему моделирования и освоим ряд продвинутых техник, которые помогут вам создать любую модель, какую вы только можете представить.
Упор в этой главе будет сделан на полигональное моделирование. При помощи него вы создадите эффектную модель скрипки. В уроках этой главы вы научитесь создавать по-настоящему сложные 3D-модели, а также узнаете о правилах построения полигональной сетки и о том, как избежать различных нежелательных артефактов.
Автор этой главы – Georgee Dairon, профессиональный 3D-художник. Georgee специализируется на создании сложных 3D-моделей для различных компьютерных игр. Также Georgee – админ крупного сообщества «ВКонтакте» по Cinema 4D.-Бонусная глава. Рендер Octane
5 занятий (1 ч. 24 мин.)
Очень многое в трехмерной графике зависит не только от выбора 3D-программы, но и от выбора подходящего рендера. Если взять какую-нибудь сцену и просчитать ее разными рендерами, то результаты могут разительно отличаться друг от друга. При этом может отличаться не только визуальная составляющая финального изображения, но и время, которое вы потратили на просчет.
Профессиональные 3D-художники и моушн-дизайнеры довольно-таки редко используют стандартный рендер Cinema 4D и все чаще отдают предпочтение сторонним решениям, например Octane или Redshift. Именно поэтому мы решили записать две бонусные главы, посвященные этим рендерам. Octane Render на сегодняшний день является одним из самых быстрых физически корректных рендеров в индустрии. С помощью него вы не только сможете получать потрясающие результаты за считаные минуты, но и контролировать как выглядит сцена, на всех этапах работы, что сильно повышает ваш творческий потенциал.
В этой главе вы познакомитесь со всеми основными параметрами «Октана» и научитесь настраивать его таким образом, чтобы выжать максимум из вашей сцены и сделать ее максимально красивой.-Бонусная глава. Рендер Redshift
3 занятия (41 мин.)
В этой бонусной главе мы поговорим о главном конкуренте «Октана» – рендере Redshift. В последнее время многие 3D-художники отдают предпочтение именно Redshift за удобные функции и стабильную работу. Redshift отлично справляется со сложными сценами, именно поэтому он используется при создании компьютерной графики для мировых блокбастеров. При этом Redshift прост в освоении, и работать с ним могут даже новички.
Автор этой главы – Иван Безруков, профессиональный 3D-художник и моушн-дизайнер. Ваня является автором VideoSmile.ru и уже давно радует нас качественными уроками.

Дополнительная информация

В раздаче присутствуют материалы к урокам в папке Files и плагины в папке Plugins for Cinema4d.

Mediainfo:

Общее
Формат: MPEG-4
Профиль формата: Base Media
Идентификатор кодека: isom (isom/iso2/avc1/mp41)
Размер файла: 237 Мбайт
Продолжительность: 23 м. 10 с.
Общий поток: 1427 Кбит/сек
Программа кодирования: Lavf57.2.100
Видео
Идентификатор: 1
Формат: AVC
Формат/Информация: Advanced Video Codec
Профиль формата: High@L4
Настройки формата: CABAC / 2 Ref Frames
Параметр CABAC формата: Да
Параметр RefFrames формата: 2 кадра
Идентификатор кодека: avc1
Идентификатор кодека/Информация: Advanced Video Coding
Продолжительность: 23 м. 10 с.
Битрейт: 1291 Кбит/сек
Ширина: 1920 пикселей
Высота: 1080 пикселей
Соотношение сторон: 16:9
Режим частоты кадров: Постоянный
Частота кадров: 30,000 кадров/сек
Цветовое пространство: YUV
Субдискретизация насыщенности: 4:2:0
Битовая глубина: 8 бит
Тип развёртки: Прогрессивная
Бит/(Пиксели*Кадры): 0.021
Размер потока: 214 Мбайт (90%)
Цветовой диапазон: Limited
Основные цвета: BT.709
Характеристики трансфера: BT.709
Коэффициенты матрицы: BT.709
Аудио
Идентификатор: 2
Формат: AAC
Формат/Информация: Advanced Audio Codec
Профиль формата: LC
Идентификатор кодека: mp4a-40-2
Продолжительность: 23 м. 10 с.
Вид битрейта: Постоянный
Битрейт: 128 Кбит/сек
Каналы: 2 канала
Расположение каналов: Front: L R
Частота: 44,1 КГц
Частота кадров: 43,066 кадра/сек (1024 SPF)
Метод сжатия: С потерями
Размер потока: 21,2 Мбайт (9%)
Язык: English
Default: Да
AlternateGroup/String: 1
Скриншоты:
       

Дополнительные скриншоты

       

XP1971

Пост 08-Ноя-2018 16:26

[Цитировать]

Вар196 писал(а):
]Не загружается
DHT и поиск локальных пиров включите в клиенте !

Вар196

Пост 08-Ноя-2018 13:07

[Цитировать]

Не загружается.

}{@R0N

Пост 05-Ноя-2018 19:49

[Цитировать]

Dartware | Многопоточность в C++- Автор (режиссер): Dartware
Жанр: Программирование
Описание:
Мы вступили в эру параллельных и гетерогенных вычислений. Поэтому для современного программиста уметь писать многопоточные программы настолько же важно, насколько граммотно применять паттерны проектирования или оптимизировать код. Курс последовательно введет зрителя в проблематику многопоточности и параллелизма. В качестве языка программирования в курсе используется C++.
Продолжительность: 00:50:28
Качество видео: PCRec
Видео: AVC/H.264, 1280x720, ~1 283 Kbps
Аудио: AAC, 2 ch, 317 Kbps

Mediainfo:

General
Complete name : E:\Learning\C++\Dartware\Concurrency\1. Введение.mp4
Format : MPEG-4
Format profile : Base Media / Version 2
Codec ID : mp42 (mp42/mp41)
File size : 125 MiB
Duration : 10mn 55s
Overall bit rate mode : Variable
Overall bit rate : 1 606 Kbps
Encoded date : UTC 2018-10-28 23:29:10
Tagged date : UTC 2018-10-28 23:29:13
©TIM : 00;00;00;00
©TSC : 30000
©TSZ : 1001
Video
ID : 1
Format : AVC
Format/Info : Advanced Video Codec
Format profile : [url=mailto:High@L4.2]High@L4.2[/url]
Format settings, CABAC : Yes
Format settings, ReFrames : 3 frames
Format settings, GOP : M=3, N=29
Codec ID : avc1
Codec ID/Info : Advanced Video Coding
Duration : 10mn 55s
Bit rate mode : Variable
Bit rate : 1 283 Kbps
Maximum bit rate : 16.0 Mbps
Width : 1 280 pixels
Height : 720 pixels
Display aspect ratio : 16:9
Frame rate mode : Constant
Frame rate : 29.970 (30000/1001) fps
Standard : NTSC
Color space : YUV
Chroma subsampling : 4:2:0
Bit depth : 8 bits
Scan type : Progressive
Bits/(Pixel*Frame) : 0.046
Stream size : 100 MiB (80%)
Language : English
Encoded date : UTC 2018-10-28 23:29:10
Tagged date : UTC 2018-10-28 23:29:10
Color range : Limited
Color primaries : BT.709
Transfer characteristics : BT.709
Matrix coefficients : BT.709
Audio
ID : 2
Format : AAC
Format/Info : Advanced Audio Codec
Format profile : LC
Codec ID : 40
Duration : 10mn 55s
Source duration : 10mn 55s
Bit rate mode : Variable
Bit rate : 317 Kbps
Maximum bit rate : 321 Kbps
Channel(s) : 2 channels
Channel positions : Front: L R
Sampling rate : 48.0 KHz
Frame rate : 46.875 fps (1024 spf)
Compression mode : Lossy
Stream size : 24.8 MiB (20%)
Source stream size : 24.8 MiB (20%)
Language : English
Encoded date : UTC 2018-10-28 23:29:10
Tagged date : UTC 2018-10-28 23:29:10

Содержание курса

- Введение
- Класс thread
- Защита разделяемых ресурсов
Скриншоты:
       

}{@R0N

Пост 27-Окт-2018 20:53

[Цитировать]

Lynda.com | Photoshop CC 2019 Essential Training: The Basics - Автор (режиссер): Julieanne Kost
Производство: Lynda.com
Жанр: Photoshop, Обучающее видео
Описание:
Изучите основные функции Photoshop CC 2019. Этот курс охватывает ключевые понятия, которые должны знать все пользователи Photoshop независимо от того, как они используют программу.
Продолжительность: 04:54:42
Качество видео: PCRec
Перевод: Отсутствует
Язык озвучки: Английский
Видео: AVC/H.264, 1280х720, ~132 Kbps
Аудио: AAC, 2 ch, 128 Kbps

Mediainfo:

General
Complete name : Lynda - Photoshop CC 2019 Essential Training - The Basics\01. Opening Files\04 - Opening documents in Photoshop.mp4
Format : MPEG-4
Format profile : Base Media / Version 2
Codec ID : mp42 (mp42/isom)
File size : 8.79 MiB
Duration : 4 min 32 s
Overall bit rate mode : Variable
Overall bit rate : 271 kb/s
Encoded date : UTC 2018-10-18 08:36:25
Tagged date : UTC 2018-10-18 08:36:25
Video
ID : 1
Format : AVC
Format/Info : Advanced Video Codec
Format profile : [url=mailto:Main@L3.1]Main@L3.1[/url]
Format settings, CABAC : Yes
Format settings, ReFrames : 5 frames
Codec ID : avc1
Codec ID/Info : Advanced Video Coding
Duration : 4 min 32 s
Bit rate mode : Variable
Bit rate : 132 kb/s
Maximum bit rate : 1 072 kb/s
Width : 1 280 pixels
Height : 720 pixels
Display aspect ratio : 16:9
Frame rate mode : Constant
Frame rate : 30.000 FPS
Color space : YUV
Chroma subsampling : 4:2:0
Bit depth : 8 bits
Scan type : Progressive
Bits/(Pixel*Frame) : 0.005
Stream size : 4.28 MiB (49%)
Title : Telestream, LLC Telestream Media Framework - Release Multiscreen 2017.115.233660
Writing library : x264 core 148
Encoding settings : cabac=1 / ref=5 / deblock=1:0:0 / analyse=0x1:0x111 / me=hex / subme=7 / psy=1 / psy_rd=1.00:0.00 / mixed_ref=1 / me_range=16 / chroma_me=1 / trellis=1 / 8x8dct=0 / cqm=0 / deadzone=21,11 / fast_pskip=1 / chroma_qp_offset=-2 / threads=16 / lookahead_threads=2 / sliced_threads=0 / nr=0 / decimate=1 / interlaced=0 / paff=0 / bluray_compat=0 / constrained_intra=0 / bframes=1 / b_pyramid=0 / b_adapt=1 / b_bias=0 / direct=1 / weightb=1 / open_gop=0 / weightp=2 / keyint=300 / keyint_min=30 / scenecut=50 / intra_refresh=0 / rc_lookahead=40 / rc=crf / mbtree=1 / crf=22.0 / qcomp=0.60 / qpmin=0 / qpmax=69 / qpstep=4 / vbv_maxrate=1072 / vbv_bufsize=10720 / crf_max=0.0 / nal_hrd=vbr / filler=0 / ip_ratio=3.00 / aq=1:1.00
Language : English
Encoded date : UTC 2018-10-18 08:36:25
Tagged date : UTC 2018-10-18 08:36:25
Color range : Limited
Color primaries : BT.601 NTSC
Transfer characteristics : BT.601
Matrix coefficients : BT.601
Audio
ID : 2
Format : AAC
Format/Info : Advanced Audio Codec
Format profile : LC
Codec ID : 40
Duration : 4 min 32 s
Bit rate mode : Constant
Bit rate : 128 kb/s
Channel(s) : 2 channels
Channel positions : Front: L R
Sampling rate : 48.0 kHz
Frame rate : 46.875 FPS (1024 spf)
Compression mode : Lossy
Stream size : 4.16 MiB (47%)
Title : Telestream, LLC Telestream Media Framework - Release Multiscreen 2017.115.233660
Encoded date : UTC 2018-10-18 08:36:25
Tagged date : UTC 2018-10-18 08:36:25

Содержание курса:

## Introduction
* 01 - Welcome to the essentials of Photoshop
* 02 - What you should know
* 03 - Using the exercise files
## 1. Opening Files
* 04 - Opening documents in Photoshop
* 05 - Opening files into Photoshop from Bridge
* 06 - Opening files from Lightroom
* 07 - Starting with Adobe Camera Raw
## 2. Documents and Navigation
* 08 - A tour of the Photoshop interface
* 09 - Working with multiple documents
* 10 - Panning and zooming documents
* 11 - Viewing with different screen modes
## 3. Customizing the Photoshop Interface
* 12 - Arranging the panels you use most often
* 13 - Switching and saving workspaces
* 14 - Customizing the toolbar
* 15 - Modifying keyboard shortcuts for speed
## 4. Digital Image Essentials
* 16 - Understanding file formats
* 17 - Choosing color modes and bit depth
* 18 - Understanding color space
* 19 - Understanding what document size you need
* 20 - Changing document size
* 21 - Multiple undo and the History panel
* 22 - Saving documents
## 5. Cropping, Straightening, and Adjusting Canvas Size
* 23 - Using the Crop tool
* 24 - Straightening a crooked image
* 25 - Cropping to the perfect size
* 26 - Increasing canvas size
* 27 - Auto-fill with Content Aware Crop
## 6. Layers
* 28 - Exploring layer basics
* 29 - Loading, selecting, transforming, and aligning
* 30 - Working with layer groups
* 31 - Merging and flattening layers
## 7. Color and Brush Essentials
* 32 - Color basics
* 33 - Brush options
## 8. Working with Layer Masks
* 34 - Layer mask essentials
* 35 - Using gradients to blend images
## 9. Making Selections
* 36 - Using the Marquee and Lasso tools
* 37 - Combining selections
* 38 - Quick select and layer mask touch-ups
* 39 - Selecting soft edge objects using Select and Mask
* 40 - Using Select and Mask to refine a hard edge selection
* 41 - Making selections based on color and focus
## 10. Local Pixel Editing and Retouching
* 42 - Removing distracting elements with the Healing Brush and Patch tools
* 43 - The magic of Content-Aware Fill, Move, and Scale
* 44 - Using the Clone Stamp tool
* 45 - Removing larger elements from an image
## 11. Blend Mode Essentials
* 46 - Getting to know the blend modes
## 12. Smart Object Essentials
* 47 - Smart Object basics
* 48 - Opening a raw image as a Smart Object
## 13. Essential Transformations
* 49 - Scaling, skewing, and rotating layers with Free Transform
* 50 - Correcting perspective
## 14. Adjustment Layer Essentials
* 51 - Introducing adjustment layers
* 52 - Understanding the Histogram
* 53 - Refining dynamic range using Levels
* 54 - Adjusting local color and contrast using Curves
* 55 - Changing vibrance, hue, and saturation
* 56 - Custom black and white conversions
* 57 - Limiting adjustments with clipping masks
## 15. Essential Filters
* 58 - Overview of filters
* 59 - Applying filters non destructively with Smart Filters
* 60 - Sharpening images
* 61 - Applying Camera Raw as a filter
* 62 - Applying filters to multiple layers
## Conclusion
* 63 - Next steps
Скриншоты:

}{@R0N

Пост 24-Окт-2018 16:25

[Цитировать]

Lynda.com | Photoshop CC 2019 New Features - Автор (режиссер): Deke McClelland
Производство: Lynda.com
Жанр: Photoshop, Обучающее видео
Описание:
Обучающее видео о новых возможностях Photoshop CC 2019 от Lynda.com и Deke McClelland.
Продолжительность: 01:48:44
Качество видео: PCRec
Перевод: Отсутствует
Язык: Английский
Видео: AVC/H.264, 1280х720, ~321 Kbps
Аудио: AAC, 2 ch, 128 Kbps

Mediainfo:

Complete name                  : Lynda Photoshop CC 2019 New Features\02_NEW.FEA\01_EMBED.MP4
Format : MPEG-4
Format profile : Base Media / Version 2
Codec ID : mp42 (mp42/isom)
File size : 19.8 MiB
Duration : 6 min 1 s
Overall bit rate mode : Variable
Overall bit rate : 459 kb/s
Encoded date : UTC 2018-10-03 20:02:24
Tagged date : UTC 2018-10-03 20:02:24
Video
ID : 1
Format : AVC
Format/Info : Advanced Video Codec
Format profile : [url=mailto:Main@L3.1]Main@L3.1[/url]
Format settings, CABAC : Yes
Format settings, ReFrames : 5 frames
Codec ID : avc1
Codec ID/Info : Advanced Video Coding
Duration : 6 min 1 s
Bit rate mode : Variable
Bit rate : 321 kb/s
Maximum bit rate : 1 072 kb/s
Width : 1 280 pixels
Height : 720 pixels
Display aspect ratio : 16:9
Frame rate mode : Constant
Frame rate : 30.000 FPS
Color space : YUV
Chroma subsampling : 4:2:0
Bit depth : 8 bits
Scan type : Progressive
Bits/(Pixel*Frame) : 0.012
Stream size : 13.8 MiB (70%)
Title : Telestream, LLC Telestream Media Framework - Release Multiscreen 2018.136.243632
Writing library : x264 core 148
Encoding settings : cabac=1 / ref=5 / deblock=1:0:0 / analyse=0x1:0x111 / me=hex / subme=7 / psy=1 / psy_rd=1.00:0.00 / mixed_ref=1 / me_range=16 / chroma_me=1 / trellis=1 / 8x8dct=0 / cqm=0 / deadzone=21,11 / fast_pskip=1 / chroma_qp_offset=-2 / threads=16 / lookahead_threads=2 / sliced_threads=0 / nr=0 / decimate=1 / interlaced=0 / paff=0 / bluray_compat=0 / constrained_intra=0 / bframes=1 / b_pyramid=0 / b_adapt=1 / b_bias=0 / direct=1 / weightb=1 / open_gop=0 / weightp=2 / keyint=300 / keyint_min=30 / scenecut=50 / intra_refresh=0 / rc_lookahead=40 / rc=crf / mbtree=1 / crf=22.0 / qcomp=0.60 / qpmin=0 / qpmax=69 / qpstep=4 / vbv_maxrate=1072 / vbv_bufsize=10720 / crf_max=0.0 / nal_hrd=vbr / filler=0 / ip_ratio=3.00 / aq=1:1.00
Language : English
Encoded date : UTC 2018-10-03 20:02:24
Tagged date : UTC 2018-10-03 20:02:24
Color range : Limited
Color primaries : BT.601 NTSC
Transfer characteristics : BT.601
Matrix coefficients : BT.601
Audio
ID : 2
Format : AAC
Format/Info : Advanced Audio Codec
Format profile : LC
Codec ID : 40
Duration : 6 min 1 s
Bit rate mode : Constant
Bit rate : 128 kb/s
Channel(s) : 2 channels
Channel positions : Front: L R
Sampling rate : 48.0 kHz
Frame rate : 46.875 FPS (1024 spf)
Compression mode : Lossy
Stream size : 5.52 MiB (28%)
Title : Telestream, LLC Telestream Media Framework - Release Multiscreen 2018.136.243632
Encoded date : UTC 2018-10-03 20:02:24
Tagged date : UTC 2018-10-03 20:02:24

Содержание курса:

Photoshop New Features
Photoshop 20 will change how you work
1m 32s
1. New Features
Embed file data in a Smart Object
6m 1s
The new look of multiple undos
6m 53s
The new Content-Aware Fill (CAF) taskspace
8m 31s
Undo and redo layer visibility
5m 2s
CAF settings: Color Adaptation
4m 42s
CAF settings: Rotation Adaptation
5m 27s
CAF settings: Scale
6m
CAF settings: Mirror
5m 10s
Free Transform scales proportionally
6m 22s
Photoshop does math!
4m 17s
Restoring the transform reference point
4m 17s
The new in-panel color wheel
5m 44s
Previewing blend modes on the fly
3m 30s
Paint Symmetry enhancements
8m 58s
Creating your own custom Paint Symmetry
4m 19s
Paint Symmetry keyboard shortcuts
4m 56s
View > Flip Horizontal
5m 28s
Custom taskspace shortcuts
4m 57s
Using the Frame tool
6m 28s
Скриншоты:
       

}{@R0N

Пост 08-Окт-2018 18:25

[Цитировать]

Pluralsight.com | Advanced Python - Автор (режиссер): Robert Smallshire
Производство: Pluralsight.com
Жанр: Программирование
Описание:
Продвинутый Python
Со временем Python превратился из незаметного языка для программирования в один из самых популярных и широко используемых языков в мире. В этом курсе вы изучите темы, знание которых позволит отличить вас от большинства разработчиков Python.
Продолжительность: 03:53:22
Качество видео: PCRec
Перевод: Дублированный (Helluvallyric)
Язык озвучки: Русский, Английский
Видео: AVC/H.264, 1280x720, ~74-495 Kbps
Аудио 1: AAC, 1 ch, 160 Kbps - Русский, дублированный (Helluvallyric)
Аудио 2: AAC, 2 ch, 50-95 Kbps - Английский, оригинал

Mediainfo:

General
Complete name : 00_01. Course Overview.mp4
Format : MPEG-4
Format profile : Base Media
Codec ID : isom
File size : 7.78 MiB
Duration : 2mn 10s
Overall bit rate : 498 Kbps
Video
ID : 1
Format : AVC
Format/Info : Advanced Video Codec
Format profile : [url=mailto:High@L4.0]High@L4.0[/url]
Format settings, CABAC : Yes
Format settings, ReFrames : 8 frames
Codec ID : avc1
Codec ID/Info : Advanced Video Coding
Duration : 2mn 10s
Bit rate : 233 Kbps
Width : 1 280 pixels
Height : 720 pixels
Display aspect ratio : 16:9
Frame rate mode : Constant
Frame rate : 30.000 fps
Color space : YUV
Chroma subsampling : 4:2:0
Bit depth : 8 bits
Scan type : Progressive
Bits/(Pixel*Frame) : 0.008
Stream size : 3.64 MiB (47%)
Writing library : x264 core 136
Language : English
Audio #1
ID : 2
Format : AAC
Format/Info : Advanced Audio Codec
Format profile : LC
Codec ID : 40
Duration : 2mn 10s
Duration_LastFrame : 35ms
Bit rate mode : Constant
Bit rate : 160 Kbps
Channel(s) : 2 channels
Channel(s)_Original : 1 channel
Channel positions : Front: C
Sampling rate : 44.1 KHz
Compression mode : Lossy
Stream size : 2.50 MiB (32%)
Language : Russian
Audio #2
ID : 3
Format : AAC
Format/Info : Advanced Audio Codec
Format profile : LC
Codec ID : 40
Duration : 2mn 10s
Bit rate mode : Constant
Bit rate : 96.0 Kbps
Channel(s) : 2 channels
Channel positions : Front: L R
Sampling rate : 44.1 KHz
Compression mode : Lossy
Stream size : 1.50 MiB (19%)
Language : English

Дополнительная информация:

Во-первых, вы узнаете, как получить средства детального контроля доступа. Затем вы узнаете, как использовать конструкторы классов при создании объектов. В конце вы познакомитесь с деликатными, но мощными элементами управления Python.
К концу этого курса вы достаточно хорошо изучите Python, чтобы понять продвинутые методы, используемые для реализации сложных структур, а также многое другое.
Примечание. На сайте Pluralsight.com данный курс логически завершает трилогию учебных курсов:
Python Fundamentals
Python – Beyond the Basics
Advanced Python
Файлы упражнений прилагаются к курсу.
Дополнительная информация на офсайте.
Как выбрать звуковую дорожку по умолчанию (ссылка).
Скриншоты:
       

}{@R0N

Пост 08-Окт-2018 13:27

[Цитировать]

Учебный центр 1C | Программирование на JAVA для школьников- Автор (режиссер): Учебный центр 1C
Жанр: Программирование
Описание:
В курсе кратко рассматриваются языки программирования, от языков низкого уровня до языков высокого уровня.
Даётся описание языка JAVA, от его происхождения до областей его применения.
Объясняется где скачать и как установить пакет разработчика Java, а так же среду разработки Eclipse.
Целью курса является рассмотрение основных операторов языка и последующее создание игры.
Основной методический подход в обучении на данном курсе состоит в самостоятельном выполнении обучаемыми демонстрируемых примеров под руководством опытного преподавателя центра обучения 1С.
Продолжительность: 11:26:58
Качество видео: PCRec
Видео: AVC/H.264, 1024x768, ~729 Kbps
Аудио: AAC, 2 ch, 126 Kbps

Mediainfo:

Общее
Полное имя : 1.mp4
Формат : MPEG-4
Профиль формата : Base Media / Version 2
Идентификатор кодека : mp42 (isom/mp42)
Размер файла : 443 Мбайт
Продолжительность : 1 ч. 12 м.
Режим общего битрейта : Переменный
Общий поток : 857 Кбит/сек
Дата кодирования : UTC 2015-12-11 09:44:24
Дата пометки : UTC 2015-12-11 09:44:24
Видео
Идентификатор : 1
Формат : AVC
Формат/Информация : Advanced Video Codec
Профиль формата : [url=mailto:Baseline@L3.1]Baseline@L3.1[/url]
Настройки формата : 3 Ref Frames
Параметр CABAC формата : Нет
Параметр RefFrames формата : 3 кадра
Параметр GOP формата : M=1, N=75
Идентификатор кодека : avc1
Идентификатор кодека/Информация : Advanced Video Coding
Продолжительность : 1 ч. 12 м.
Продолжительность оригинала : 1 ч. 12 м.
Битрейт : 729 Кбит/сек
Ширина : 1024 пикселя
Высота : 768 пикселей
Соотношение сторон : 4:3
Режим частоты кадров : Переменный
Частота кадров : 15,000 кадров/сек
Минимальная частота кадров : 15,000 кадров/сек
Максимальная частота кадров : 15,008 кадров/сек
Цветовое пространство : YUV
Субдискретизация насыщенности : 4:2:0
Битовая глубина : 8 бит
Тип развёртки : Прогрессивная
Бит/(Пиксели*Кадры) : 0.062
Размер потока : 377 Мбайт (85%)
Размер потока оригинала : 377 Мбайт (85%)
Язык : English
Дата кодирования : UTC 2015-12-11 09:44:25
Дата пометки : UTC 2015-12-11 09:44:25
Цветовой диапазон : Limited
mdhd_Duration : 4334000
Codec configuration box : avcC
Аудио
Идентификатор : 2
Формат : AAC LC
Формат/Информация : Advanced Audio Codec Low Complexity
Идентификатор кодека : mp4a-40-2
Продолжительность : 1 ч. 12 м.
Продолжительность оригинала : 1 ч. 12 м.
Вид битрейта : Переменный
Битрейт : 126 Кбит/сек
Максимальный битрейт : 160 Кбит/сек
Каналы : 2 канала
Channel layout : L R
Частота : 44,1 КГц
Частота кадров : 43,066 кадра/сек (1024 SPF)
Метод сжатия : С потерями
Размер потока : 64,9 Мбайт (15%)
Размер потока оригинала : 64,9 Мбайт (15%)
Язык : English
Дата кодирования : UTC 2015-12-11 09:44:25
Дата пометки : UTC 2015-12-11 09:44:25
mdhd_Duration : 4334028
Скриншоты:
       

}{@R0N

Пост 14-Сен-2018 11:03

[Цитировать]

loftschool | Разработка под Android Базовый курс - Автор (режиссер): loftschool
Жанр: Программирование, Android
Описание:
Если вы уже научились писать весь ваш код внутри Activity, но понимаете, что со временем его становится сложно читать и поддерживать, то этот курс именно для вас. Мы уделим много времени архитектуре приложения и поймем, как писать код так, чтобы за него не было стыдно. Также углубим ваши знания в Android OS.
Вы сможете лучше понимать что происходит с вашим приложением “под капотом” и будете готовы к подобным вопросам на собеседованиях. Мы стараемся объяснить все сложные вещи простым языком и добиться понимания от каждого ученика, так что ваш рост неизебежен.
Продолжительность: 19:28:23
Качество видео: PCRec
Видео: VP8, 1280x720, ~122-147 Kbps
Аудио: Vorbis, 2 ch, 112 Kbps

Mediainfo:

Общее
Уникальный идентификатор : 227757657990008408296248812749828150279 (0xAB5887840C5A2212516151DB83B85407)
Полное имя : .\01_HelloWorld\001 Hello, world!.webm
Формат : WebM
Версия формата : Version 2
Размер файла : 195 Мбайт
Продолжительность : 1 ч. 38 м.
Режим общего битрейта : Переменный
Общий поток : 278 Кбит/сек
Программа кодирования : Lavf55.0.100
Библиотека кодирования : Lavf55.0.100
Видео
Идентификатор : 1
Формат : VP8
Идентификатор кодека : V_VP8
Продолжительность : 1 ч. 38 м.
Битрейт : 147 Кбит/сек
Ширина : 1280 пикселей
Высота : 720 пикселей
Соотношение сторон : 16:9
Режим частоты кадров : Постоянный
Частота кадров : 24,000 кадра/сек
Метод сжатия : С потерями
Бит/(Пиксели*Кадры) : 0.007
Размер потока : 103 Мбайт (53%)
Default : Да
Forced : Нет
Аудио
Идентификатор : 2
Формат : Vorbis
Параметр Floor формата : 1
Идентификатор кодека : A_VORBIS
Продолжительность : 1 ч. 38 м.
Вид битрейта : Переменный
Битрейт : 112 Кбит/сек
Каналы : 2 канала
Частота : 48,0 КГц
Метод сжатия : С потерями
Задержка видео : -3 мс.
Размер потока : 78,6 Мбайт (40%)
Программа кодирования : Lavc55.0.100
Библиотека кодирования : libVorbis (Omnipresent) (20120203 (Omnipresent))
Default : Нет
Forced : Нет

Дополнительная информация:

В раздаче имеются архивы! В них содержится дополнительные материалы.
Скриншоты:
       

}{@R0N

Пост 14-Сен-2018 10:56

[Цитировать]

Евгений Некоз | Чат-боты для Amazon и не только [Вебинар] - Автор (режиссер): Евгений Некоз
Жанр: Вебинары
Описание:
Вебинар максимально подойдет если Вы:
1. В поиске альтернативных каналов для сбора отзывов на ваши товары
2. Хотите запускать новые товары и не знаете как собрать первых покупателей и первые отзывы
3. Желаете выстроить автоматизированные воронки для работы со своими клиентами
4. Хотите научиться использовать чат-боты не только для Amazon, но и для других своих бизнесов или автоматизации процессов
Продолжительность: 08:37:17
Качество видео: WEBRip
Перевод: Отсутствует
Язык озвучки: Английский
Видео: AVC/H.264, 1280х720, ~550 kbps
Аудио: AAC, 2 ch, 96-125 kbp

Mediainfo:

General
Format : MPEG-4
Format profile : Base Media / Version 2
Codec ID : mp42
File size : 152 MiB
Duration : 27mn 9s
Overall bit rate mode : Variable
Overall bit rate : 781 Kbps
Encoded date : UTC 2018-03-06 17:56:19
Tagged date : UTC 2018-03-06 17:56:19
gsst : 0
gstd : 1629251
Video
ID : 1
Format : AVC
Format/Info : Advanced Video Codec
Format profile : [url=mailto:Main@L3.1]Main@L3.1[/url]
Format settings, CABAC : Yes
Format settings, ReFrames : 3 frames
Codec ID : avc1
Codec ID/Info : Advanced Video Coding
Duration : 27mn 9s
Bit rate mode : Variable
Bit rate : 683 Kbps
Width : 1 280 pixels
Height : 720 pixels
Display aspect ratio : 16:9
Frame rate mode : Constant
Frame rate : 29.970 fps
Color space : YUV
Chroma subsampling : 4:2:0
Bit depth : 8 bits
Scan type : Progressive
Bits/(Pixel*Frame) : 0.025
Stream size : 133 MiB (88%)
Encoded date : UTC 2018-03-06 17:56:19
Tagged date : UTC 2018-03-06 17:56:19
Color primaries : BT.709-5, BT.1361, IEC 61966-2-4, SMPTE RP177
Transfer characteristics : BT.709-5, BT.1361
Matrix coefficients : BT.709-5, BT.1361, IEC 61966-2-4 709, SMPTE RP177
Audio
ID : 2
Format : AAC
Format/Info : Advanced Audio Codec
Format profile : LC
Codec ID : 40
Duration : 27mn 9s
Bit rate mode : Variable
Bit rate : 93.6 Kbps
Channel(s) : 2 channel
Channel positions : Front: C
Sampling rate : 44.1 KHz
Compression mode : Lossy
Delay relative to video : -33ms
Stream size : 18.2 MiB (12%)
Encoded date : UTC 2018-03-06 17:56:19
Tagged date : UTC 2018-03-06 17:56:19

Дополнительная информация

После вебинара Вы узнаете
  • Для чего нужны чат-боты
  • Какие задачи можно решать с их помощью (и не только сбор ревью)
  • Ограничения и недостатки, о которых молчат
  • Основные платформы, их плюсы и минусы
  • Варианты использования чат-ботов для Амазона
  • Примеры построения чат-бота на живом аккаунте с нуля и до рабочего прототипа
  • Автоматизацию и интеграцию с другими сервисами
  • Как проводить тесты
  • Как оптимизировать чат-бота
Скриншоты:
     

}{@R0N

Пост 14-Сен-2018 10:53

[Цитировать]

loftschool | Node.js серверный JavaScript - Автор (режиссер): loftschool
Жанр: Программирование, JavaScript, Node.js
Описание:
Будущее — за распределенными системами, построенными на событийно-ориентированной основе, циклах и потоках. Объектная модель документа — всё ещё существует, но это уже не столько форма представления разметки HTML, сколько структура данных в памяти, динамически создаваемая с использованием JavaScript. Архитектура Node.js — идеальный выбор в этих условиях. Так же популярности Node.js добавляет обширный NPM-репозиторий, внушительное сообщество разработчиков и возможность использовать JavaScript как на клиенте, так и на сервере.
В течение курса вы разработаете серверную часть для корпоративного приложения — внутренней системы взаимодействия между сотрудниками. Вымышленный корпоративный сайт. Новости, чат, панель администратора и пользовательские настройки.
Продолжительность: 32:17:05
Качество видео: PCRec
Видео: AVC/H.264, 1448x728, ~216-1805 Kbps
Аудио: AAC, 2 ch, 165-193 Kbps

Mediainfo:

Общее
Полное имя : .\0. Введение в Node.js и настройка рабочей среды\001 Введение в Node.mp4
Формат : MPEG-4
Профиль формата : Base Media
Идентификатор кодека : isom (isom/iso2/avc1/mp41)
Размер файла : 202 Мбайт
Продолжительность : 1 ч. 7 м.
Общий поток : 416 Кбит/сек
Программа кодирования : Lavf57.25.100
Видео
Идентификатор : 1
Формат : AVC
Формат/Информация : Advanced Video Codec
Профиль формата : [url=mailto:High@L3.2]High@L3.2[/url]
Настройки формата : 1 Ref Frames
Параметр CABAC формата : Нет
Параметр RefFrames формата : 1 кадр
Идентификатор кодека : avc1
Идентификатор кодека/Информация : Advanced Video Coding
Продолжительность : 1 ч. 7 м.
Битрейт : 216 Кбит/сек
Ширина : 1448 пикселей
Высота : 728 пикселей
Соотношение сторон : 1,989
Режим частоты кадров : Постоянный
Частота кадров : 30,000 кадров/сек
Цветовое пространство : YUV
Субдискретизация насыщенности : 4:2:0
Битовая глубина : 8 бит
Тип развёртки : Прогрессивная
Бит/(Пиксели*Кадры) : 0.007
Размер потока : 105 Мбайт (52%)
Цветовой диапазон : Limited
Аудио
Идентификатор : 2
Формат : AAC
Формат/Информация : Advanced Audio Codec
Профиль формата : LC
Идентификатор кодека : mp4a-40-2
Продолжительность : 1 ч. 7 м.
Вид битрейта : Постоянный
Битрейт : 192 Кбит/сек
Каналы : 2 канала
Расположение каналов : Front: L R
Частота : 44,1 КГц
Частота кадров : 43,066 кадра/сек (1024 SPF)
Метод сжатия : С потерями
Размер потока : 93,5 Мбайт (46%)
Default : Да
AlternateGroup/String : 1

Дополнительная информация:

В раздаче имеются архивы! В них содержится дополнительные материалы.
Скриншоты:
       

}{@R0N

Пост 14-Сен-2018 10:52

[Цитировать]

loftschool | React.js. Разработка веб-приложений - Автор (режиссер): loftschool
Жанр: Программирование, JavaScript, React
Описание:
Современный веб — это не просто сайты, это полноценные приложения, требующие правильных подходов по организации кода и логики. Этот курс научит вас строить большие и сложные системы, в которых легко и просто ориентироваться. Разделять логику работы на правильные абстракции и получать отличный результат в скорости и простоте работы ваших приложений.
Продолжительность: 28:00:26
Качество видео: PCRec
Видео: AVC/H.264, 1440x1080-1832x1056, ~21-1428 Kbps
Аудио: AAC, 2 ch, 162-195 Kbps

Mediainfo:

Общее
Полное имя : .\06. Redux\011 Redux часть 1.mp4
Формат : MPEG-4
Профиль формата : Base Media
Идентификатор кодека : isom (isom/mp42)
Размер файла : 36,3 Мбайт
Продолжительность : 24 м. 10 с.
Режим общего битрейта : Переменный
Общий поток : 210 Кбит/сек
Дата кодирования : UTC 2018-07-06 11:17:45
Дата пометки : UTC 2018-07-06 11:17:45
Программа кодирования : BandiMp4Muxer 1.0
Видео
Идентификатор : 1
Формат : AVC
Формат/Информация : Advanced Video Codec
Профиль формата : Baseline@L4
Настройки формата : 1 Ref Frames
Параметр CABAC формата : Нет
Параметр RefFrames формата : 1 кадр
Идентификатор кодека : avc1
Идентификатор кодека/Информация : Advanced Video Coding
Продолжительность : 24 м. 10 с.
Битрейт : 32,6 Кбит/сек
Ширина : 1440 пикселей
Высота : 1080 пикселей
Соотношение сторон : 4:3
Режим частоты кадров : Переменный
Частота кадров : 5,198 кадров/сек
Минимальная частота кадров : 1,667 кадра/сек
Максимальная частота кадров : 30,030 кадров/сек
Цветовое пространство : YUV
Субдискретизация насыщенности : 4:2:0
Битовая глубина : 8 бит
Тип развёртки : Прогрессивная
Бит/(Пиксели*Кадры) : 0.004
Размер потока : 5,64 Мбайт (16%)
Язык : English
Дата кодирования : UTC 2018-07-06 11:17:45
Дата пометки : UTC 2018-07-06 11:17:45
Аудио
Идентификатор : 2
Формат : AAC
Формат/Информация : Advanced Audio Codec
Профиль формата : LC
Идентификатор кодека : mp4a-40-2
Продолжительность : 24 м. 9 с.
Продолжительность оригинала : 24 м. 9 с.
Вид битрейта : Переменный
Битрейт : 174 Кбит/сек
Каналы : 2 канала
Расположение каналов : Front: L R
Частота : 48,0 КГц
Частота кадров : 46,875 кадров/сек (1024 SPF)
Метод сжатия : С потерями
Размер потока : 30,0 Мбайт (83%)
Размер потока оригинала : 30,0 Мбайт (83%)
Язык : English
Дата кодирования : UTC 2018-07-06 11:17:45
Дата пометки : UTC 2018-07-06 11:17:45
mdhd_Duration : 1449877
Общее
Полное имя : .\07. Redux middlewares\013 Redux middlewares.mp4
Формат : MPEG-4
Профиль формата : Base Media
Идентификатор кодека : isom (mp41)
Размер файла : 727 Мбайт
Продолжительность : 1 ч. 44 м.
Режим общего битрейта : Переменный
Общий поток : 972 Кбит/сек
Дата кодирования : UTC 2018-07-28 12:13:37
Дата пометки : UTC 2018-07-28 12:13:37
Программа кодирования : Bandicam 4.1.4.1413 / GDI / Nvidia NVENC
Видео
Идентификатор : 1
Формат : AVC
Формат/Информация : Advanced Video Codec
Профиль формата : High@L4
Настройки формата : CABAC / 1 Ref Frames
Параметр CABAC формата : Да
Параметр RefFrames формата : 1 кадр
Идентификатор кодека : avc1
Идентификатор кодека/Информация : Advanced Video Coding
Продолжительность : 1 ч. 44 м.
Битрейт : 768 Кбит/сек
Ширина : 1584 пикселя
Высота : 1012 пикселей
Соотношение сторон : 16:10
Режим частоты кадров : Переменный
Частота кадров : 27,093 кадров/сек
Минимальная частота кадров : 14,993 кадров/сек
Максимальная частота кадров : 30,030 кадров/сек
Частота кадров в оригинале : 30,000 кадров/сек
Цветовое пространство : YUV
Субдискретизация насыщенности : 4:2:0
Битовая глубина : 8 бит
Тип развёртки : Прогрессивная
Бит/(Пиксели*Кадры) : 0.018
Размер потока : 574 Мбайт (79%)
Язык : English
Дата кодирования : UTC 2018-07-28 12:13:37
Дата пометки : UTC 2018-07-28 12:13:37
Аудио
Идентификатор : 2
Формат : AAC
Формат/Информация : Advanced Audio Codec
Профиль формата : LC
Идентификатор кодека : mp4a-40-2
Продолжительность : 1 ч. 44 м.
Вид битрейта : Переменный
Битрейт : 192 Кбит/сек
Максимальный битрейт : 373 Кбит/сек
Каналы : 2 канала
Расположение каналов : Front: L R
Частота : 48,0 КГц
Частота кадров : 46,875 кадров/сек (1024 SPF)
Метод сжатия : С потерями
Размер потока : 146 Мбайт (20%)
Язык : English
Дата кодирования : UTC 2018-07-28 12:13:37
Дата пометки : UTC 2018-07-28 12:13:37
Общее
Полное имя : .\05. Роутинг на клиенте\010 Роутинг на клиенте часть 2.mp4
Формат : MPEG-4
Профиль формата : Base Media
Идентификатор кодека : isom (isom/mp42)
Размер файла : 603 Мбайт
Продолжительность : 1 ч. 13 м.
Режим общего битрейта : Переменный
Общий поток : 1145 Кбит/сек
Дата кодирования : UTC 2018-07-01 13:32:45
Дата пометки : UTC 2018-07-01 13:32:45
Программа кодирования : BandiMp4Muxer 1.0
Видео
Идентификатор : 1
Формат : AVC
Формат/Информация : Advanced Video Codec
Профиль формата : Baseline@L4
Настройки формата : 1 Ref Frames
Параметр CABAC формата : Нет
Параметр RefFrames формата : 1 кадр
Идентификатор кодека : avc1
Идентификатор кодека/Информация : Advanced Video Coding
Продолжительность : 1 ч. 13 м.
Битрейт : 969 Кбит/сек
Ширина : 1712 пикселей
Высота : 1036 пикселей
Соотношение сторон : 5:3
Режим частоты кадров : Переменный
Частота кадров : 28,659 кадров/сек
Минимальная частота кадров : 1,000 кадр/сек
Максимальная частота кадров : 30,030 кадров/сек
Цветовое пространство : YUV
Субдискретизация насыщенности : 4:2:0
Битовая глубина : 8 бит
Тип развёртки : Прогрессивная
Бит/(Пиксели*Кадры) : 0.019
Размер потока : 510 Мбайт (85%)
Язык : English
Дата кодирования : UTC 2018-07-01 13:32:45
Дата пометки : UTC 2018-07-01 13:32:45
Аудио
Идентификатор : 2
Формат : AAC
Формат/Информация : Advanced Audio Codec
Профиль формата : LC
Идентификатор кодека : mp4a-40-2
Продолжительность : 1 ч. 13 м.
Продолжительность оригинала : 1 ч. 13 м.
Вид битрейта : Переменный
Битрейт : 170 Кбит/сек
Каналы : 2 канала
Расположение каналов : Front: L R
Частота : 48,0 КГц
Частота кадров : 46,875 кадров/сек (1024 SPF)
Метод сжатия : С потерями
Размер потока : 89,7 Мбайт (15%)
Размер потока оригинала : 89,7 Мбайт (15%)
Язык : English
Дата кодирования : UTC 2018-07-01 13:32:45
Дата пометки : UTC 2018-07-01 13:32:45
mdhd_Duration : 4416226
Общее
Полное имя : .\15. Введение в Node.js\023 Введение в Node.js.mp4
Формат : MPEG-4
Профиль формата : Base Media
Идентификатор кодека : isom (isom/mp42)
Размер файла : 260 Мбайт
Продолжительность : 55 м. 24 с.
Режим общего битрейта : Переменный
Общий поток : 657 Кбит/сек
Дата кодирования : UTC 2018-07-28 17:17:42
Дата пометки : UTC 2018-07-28 17:17:42
Программа кодирования : BandiMp4Muxer 1.0
Видео
Идентификатор : 1
Формат : AVC
Формат/Информация : Advanced Video Codec
Профиль формата : Baseline@L4
Настройки формата : 1 Ref Frames
Параметр CABAC формата : Нет
Параметр RefFrames формата : 1 кадр
Идентификатор кодека : avc1
Идентификатор кодека/Информация : Advanced Video Coding
Продолжительность : 55 м. 23 с.
Битрейт : 475 Кбит/сек
Ширина : 1832 пикселя
Высота : 1056 пикселей
Соотношение сторон : 1,735
Режим частоты кадров : Переменный
Частота кадров : 16,219 кадров/сек
Минимальная частота кадров : 0,968 кадр/сек
Максимальная частота кадров : 30,030 кадров/сек
Цветовое пространство : YUV
Субдискретизация насыщенности : 4:2:0
Битовая глубина : 8 бит
Тип развёртки : Прогрессивная
Бит/(Пиксели*Кадры) : 0.015
Размер потока : 188 Мбайт (72%)
Язык : English
Дата кодирования : UTC 2018-07-28 17:17:42
Дата пометки : UTC 2018-07-28 17:17:42
Аудио
Идентификатор : 2
Формат : AAC
Формат/Информация : Advanced Audio Codec
Профиль формата : LC
Идентификатор кодека : mp4a-40-2
Продолжительность : 55 м. 24 с.
Продолжительность оригинала : 55 м. 24 с.
Вид битрейта : Переменный
Битрейт : 177 Кбит/сек
Каналы : 2 канала
Расположение каналов : Front: L R
Частота : 48,0 КГц
Частота кадров : 46,875 кадров/сек (1024 SPF)
Метод сжатия : С потерями
Размер потока : 70,2 Мбайт (27%)
Размер потока оригинала : 70,2 Мбайт (27%)
Язык : English
Дата кодирования : UTC 2018-07-28 17:17:42
Дата пометки : UTC 2018-07-28 17:17:42
mdhd_Duration : 3324352

Дополнительная информация:

В раздаче имеются архивы! В них содержится дополнительные материалы.
Скриншоты:
       

}{@R0N

Пост 14-Сен-2018 10:40

[Цитировать]

Advance club | Как выучить английский за 3 месяца - Автор (режиссер): Advance club
Жанр: Обучение, Английский язык
Сайт автора: http://advance-club.ru/angliyskiy-za-3-mesyaca/
Описание: Во время обучения Вы:
  • бегло и грамотно заговорите на английском и поставите нейтральное произношение
  • гарантированно освоите грамматику своего уровня (чем ниже ваш уровень английского, тем больше уровней вы преодолеете);
  • значительно увеличите свой словарный запас
  • за время обучения вы без труда выучите более 3 000 новых слов
  • научитесь понимать фильмы и новости на слух и привыкнете к живому современному языку
Продолжительность: 06:50:34
Качество видео: WEBRip
Видео: AVC/H.264, 1280х720, ~820 Kbps
Аудио: AAC, 2 ch, 125-191

Mediainfo:

General
Format : MPEG-4
Format profile : Base Media / Version 2
Codec ID : mp42 (isom/mp42)
File size : 477 MiB
Duration : 2 h 6 min
Overall bit rate mode : Variable
Overall bit rate : 526 kb/s
Encoded date : UTC 2017-11-16 02:49:40
Tagged date : UTC 2017-11-16 02:49:40
gsst : 0
gstd : 7601586
Video
ID : 1
Format : AVC
Format/Info : Advanced Video Codec
Format profile : [url=mailto:Main@L3.1]Main@L3.1[/url]
Format settings : CABAC / 3 Ref Frames
Format settings, CABAC : Yes
Format settings, ReFrames : 3 frames
Codec ID : avc1
Codec ID/Info : Advanced Video Coding
Duration : 2 h 6 min
Bit rate : 396 kb/s
Width : 1 280 pixels
Height : 720 pixels
Display aspect ratio : 16:9
Frame rate mode : Constant
Frame rate : 30.000 FPS
Color space : YUV
Chroma subsampling : 4:2:0
Bit depth : 8 bits
Scan type : Progressive
Bits/(Pixel*Frame) : 0.014
Stream size : 359 MiB (75%)
Title : ISO Media file produced by Google Inc. Created on: 11/15/2017.
Encoded date : UTC 2017-11-16 02:49:40
Tagged date : UTC 2017-11-16 02:49:40
Color range : Limited
Color primaries : BT.709
Transfer characteristics : BT.709
Matrix coefficients : BT.709
Codec configuration box : avcC
Audio
ID : 2
Format : AAC
Format/Info : Advanced Audio Codec
Format profile : LC
Codec ID : mp4a-40-2
Duration : 2 h 6 min
Bit rate mode : Variable
Bit rate : 126 kb/s
Channel(s) : 2 channels
Channel positions : Front: L R
Sampling rate : 44.1 kHz
Frame rate : 43.066 FPS (1024 SPF)
Compression mode : Lossy
Stream size : 114 MiB (24%)
Title : ISO Media file produced by Google Inc. Created on: 11/15/2017.
Encoded date : UTC 2017-11-16 02:49:40
Tagged date : UTC 2017-11-16 02:49:40
Скриншоты:
     
 

Текущее время: Сегодня 03:06

Часовой пояс: GMT + 3