Сегодня идет свободное скачивание без начисления Download

Результатов поиска: 25

Автор Сообщение

Omen

Пост 09-Май-2014 10:49

[Цитировать]

Киноконцерт, посвященный дню Победы -С Праздником - Днем Победы! Год выпуска: 2013
Жанр: Короткометражный
Описание фильма:
В киноконцерте использованы музыка и песни из фильмов:
- В бой идут одни старики;
- Нормандия-Неман;
- Жажда;
- На войне как на войне;
- Звезда;
- Два бойца;
- За тех кто в море!
- На семи ветрах;
- Друзья и годы;
- Небесный тихоход;
- На дорогах войны;
- …а зори здесь тихие;
- Добровольцы;
- Прощай;
- Хроника пикирующего бомбардировщика.
Режиссер: Леонид Быков, Жан Древиль, Виктор Трегубович, Александр Файнциммер и др.
Актеры: Леонид Быков, Николай Рыбников, Михаил Кононов, Олег Борисов, Федор Одиноков, Виктор Павлов, Николай Крючков, Вячеслав Тихонов и др.
Продолжительность: 00:38:17
Качество видео: DVDRip
Видеокодек: Xvid
Битрейт видео: ~1642 kbps
Размер кадра: 688x512
Аудиокодек: MP3
Битрейт аудио: 128 kbps

MediaInfo:

Полное имя : E:\Музыка\Песни о ВОВ\Киноконцерт\Киноконцерт.avi
Формат : AVI
Формат/Информация : Audio Video Interleave
Размер файла : 508 Мбайт
Продолжительность : 38 м.
Общий поток : 1857 Кбит/сек
TCOD : 0
TCDO : 22970400000
Видео
Идентификатор : 0
Формат : MPEG-4 Visual
Профиль формата : Advanced Simple@L5
Параметр BVOP формата : 2
Параметр QPel формата : Нет
Параметр GMC формата : Без точки перехода
Параметр матрицы формата : Default (H.263)
Режим смешивания : Сжатый битовый поток
Идентификатор кодека : XVID
Идентификатор кодека/Подсказка : XviD
Продолжительность : 38 м.
Битрейт : 1642 Кбит/сек
Ширина : 688 пикселей
Высота : 512 пикселей
Соотношение сторон : 4:3
Частота кадров : 25,000 кадров/сек
Цветовое пространство : YUV
Субдискретизация насыщенности : 4:2:0
Битовая глубина : 8 бит
Тип развёртки : Прогрессивная
Метод сжатия : С потерями
Бит/(Пиксели*Кадры) : 0.186
Размер потока : 450 Мбайт (88%)
Библиотека кодирования : XviD 64
Аудио
Идентификатор : 1
Формат : MPEG Audio
Версия формата : Version 1
Профиль формата : Layer 3
Режим : Joint stereo
Идентификатор кодека : 55
Идентификатор кодека/Подсказка : MP3
Продолжительность : 38 м.
Вид битрейта : Постоянный
Битрейт : 128 Кбит/сек
Каналы : 2 канала
Частота : 48,0 КГц
Метод сжатия : С потерями
Размер потока : 35,1 Мбайт (7%)
Выравнивание : Соединение по промежуткам
Продолжительность промежутка : 250 мс. (6,25 видеокадров)
Время предзагрузки промежутка : 192 мс.
Скриншоты:        

outventure2000

Пост 03-Дек-2013 12:09

[Цитировать]

Встаньте на раздачу!!!!!

KirovSOFT

Пост 19-Янв-2013 22:05

[Цитировать]

Юбилейный концерт Димы Билана - 30 лет. Начало (2013.01.19) SATRip - Режиссер / Телекомпания: Первый канал
Русское название: Юбилейный концерт Димы Билана - 30 лет. Начало
Год выпуска: 2013
Жанр: Концерт
Описание:
Победитель конкурса Евровидения 2008 и обладатель многочисленных наград Дима Билан приготовил для своих поклонников фееричный праздник. Незабываемые впечатления, любимые хиты и новые песни — все это в одном потрясающем шоу "30 лет. Начало!".
Дима Билан: "За все эти годы в моем творчестве было немало взлетов и падений, но глядя на лица, которые из года в год сопровождают мои выступления, я понимаю, что все это было не зря".
Все 10 лет на сцене Дима Билан не перестает творить и удивлять поклонников, оставаясь преданным эмоциям и любимому делу, он каждый раз меняется до неузнаваемости. Певец еще так молод, но уже покорил столько вершин! Он начинал, как "ночной хулиган", а завоевал весь мир искренней песней "Believe"! Дима Билан относится к тем редким молодым представителям российской сцены, которые всегда идут вперед, не останавливаясь на достигнутом! Повзрослевший певец пробует себя в новом амплуа и раскроет все грани своего таланта - споет фальцетом, баритоном и легко возьмет 4 октавы.
Аккомпанировать артисту будет Венский симфонический оркестр им. Штрауса. Дирижер: Эдвин Мартон (обладатель премии Emmy, победитель Евровидения). Специальными гостями шоу будут Григорий Лепс, Валерий Меладзе и Алсу.
Продолжительность: ~ 01:15:44
Видеокодек: DviX
Битрейт видео: ~1500 kb/s
Размер кадра: 704 x 400
Качество видео: SATRip
Аудиокодек: MP2, 2ch.
Битрейт аудио: 192 kb/s

MediaInfo

Формат : AVI
Формат/Информация : Audio Video Interleave
Размер файла : 922 Мбайт
Продолжительность : 1 ч. 15 м.
Общий поток : 1702 Кбит/сек
Программа кодирования : VirtualDubModRus 1.5.10.1 (build 2439/release)
Библиотека кодирования : VirtualDubMod build 2439/release
Видео
Идентификатор : 0
Формат : MPEG-4 Visual
Параметр BVOP формата : 1
Параметр QPel формата : Нет
Параметр GMC формата : Без точки перехода
Параметр матрицы формата : Default (H.263)
Режим смешивания : Сжатый битовый поток
Идентификатор кодека : DX50
Идентификатор кодека/Подсказка : DivX 5
Продолжительность : 1 ч. 15 м.
Битрейт : 1500 Кбит/сек
Ширина : 704 пикселя
Высота : 400 пикселей
Соотношение сторон : 16:9
Частота кадров : 25,000 кадров/сек
Цветовое пространство : YUV
Субдискретизация насыщенности : 4:2:0
Битовая глубина : 8 бит
Тип развёртки : Прогрессивная
Метод сжатия : С потерями
Бит/(Пиксели*Кадры) : 0.213
Размер потока : 813 Мбайт (88%)
Библиотека кодирования : DivX 6.8.5 (UTC 2009-08-20)
Аудио
Идентификатор : 1
Формат : MPEG Audio
Версия формата : Version 1
Профиль формата : Layer 2
Идентификатор кодека : 50
Продолжительность : 1 ч. 15 м.
Вид битрейта : Постоянный
Битрейт : 192 Кбит/сек
Каналы : 2 канала
Частота : 48,0 КГц
Метод сжатия : С потерями
Размер потока : 104 Мбайт (11%)
Выравнивание : Соединение по промежуткам
Продолжительность промежутка : 40 мс. (1,00 видеокадр)
Время предзагрузки промежутка : 504 мс.
Скриншоты:
                   

cataman

Пост 23-Апр-2012 20:39

[Цитировать]

VA - Promo Only - Dance Mix Video Music Box 05 Год выхода: 2010-2011
Жанр: Pop, Dance, R'N'B, Клип
Выпущено: США, Promo DVD
Продолжительность: 02:07:04 + 02:09:27 + 02:09:17 + 02:07:35 + 02:17:25 + 02:14:46
Формат: DVD Video x6
Качество: DVD9 + (Звук отличный)
Видео: NTSC 4:3 (720x528) VBR
Аудио: English (LinearPCM, 2 ch, 1536 Кбит/с)

Dance Mix Video 2010-10 October

01. Katy Perry feat. Snoop Dogg - California Gurls (David Guetta Extended Mix)
02. Kelly Rowland - Commander (David Guetta Extended Mix)
03. Flo Rida And David Guetta - Club Can't Handle Me (David Guetta Extended Mix)
04. Nadia Ali - Fantasy (Morgan Page Remix)
05. Tegan And Sara - Alligator (Morgan Page Remix)
06. Colton Ford - Losing My Religion (M-Deep Remix - Edited by JNX)
07. Dennis Ferrer - Hey Hey (Friscia & Lamboy US Remix - Definitive Point Video Edit)
08. La Roux - Bulletproof (Razor N Guido Radio Edit)
09. Kerli - Tea Party (Chew Fu Extended Edit)
10. Ne-Yo - Beautiful Monster (Cahill Radio Edit)
11. Iyaz - Solo (Cahill Radio Edit)
12. Usher feat. Will.I.Am - OMG (Cahill Radio Edit)
13. Kelis - 4th Of July (Fireworks) (Alex Gaudino & Jason Rooney Mix)
14. Natasha Bedingfield - Touch
15. Vassy - History (Alex Gaudino & Jason Rooney Mix)
16. Alex Gaudino feat. Maxine - I'm In Love (I Wanna Do It) (Full Vocal Radio Edit)
17. Kendi - Connected (Full Vocal Radio Edit / (Digital Dog Vocal Remix) ISV Video Mix by DVJ Rodrigo Torres
18. Hannah - Keeping Score (Digital Dog Vocal Remix) ISV Video Mix by DVJ Rodrigo Torres
19. Enrique Iglesias feat. Pitbull - I Like It (Jersey Shore Version)
20. 3OH!3 feat. Ke$ha - My First Kiss (Chuckie Edit)
21. Reel 2 Real feat. The Mad Stuntman - I Like To Move It 2010 (Nicola Fasano Radio Edit)
22. Taio Cruz - Dynamite
23. Taio Cruz feat. Ke$ha - Dirty Picture
24. Taio Cruz - Break Your Heart
25. Wynter Gordon - Dirty Talk
26. AnnaGrace - Celebration
27. Amanda Morra - Kisses
28. Kaci Battaglia feat. Ludacris - Body Shots
29. Esmee Denters feat. Justin Timberlake - Love Dealer
30. Far East Movement feat. The Cataracs & Dev - Like A G6
31. Tomcraft - Loneliness 2010
32. Faithless - Not Going Home (Eric Prydz Edit)
33. Meck feat. Dino - Feels Like A Prayer
34. Madonna - Like A Virgin
35. Alisha - Baby Talk
36. Taylor Dayne - Tell It To My Heart

Dance Mix Video 2010-12 December

01. Avicii And Sebastien Drums - My Feelings For You (Single Mix)
02. Erick Morillo feat. Shawnee Taylor - Live Your Life (Single Mix)
03. Kylie Minogue - Get Outta My Way (Single Mix)
04. Jes - Closer (Promo Only Extended Edit)
05. Dennis Ferrer - Hey Hey (Promo Only Extended Edit)
06. Inna - Love (Promo Only Extended Edit)
07. Underworld - Always Loved A Film (Ralphi Rosario Club Edit)
08. The Ting Tings - Hands (Ralphi Rosario Club Edit)
09. Scissor Sisters - Fire With Fire (Ralphi Rosario Club Edit)
10. Ke$ha - Take It Off (Promo Only Extended Edit / Dave Aude Radio Edit)
11. Cascada - Pyromania (Promo Only Extended Edit)
12. Zayra - V.I.P. (My Father Is Mick Jagger) (Dave Aude Radio Edit)
13. DJ Icey - Cross Eyed Sally
14. Deekline, Dustin Hulton & Sporty-O - Apple Bottom
15. DJ Icey - High Plains Drifter
16. Flo Rida And David Guetta - Club Can't Handle Me (Promo Only Intro Edit)
17. Kaci Battaglia feat. Ludacris - Body Shots (Dave Aude Club Edit)
18. Kat DeLuna feat. Akon - Push Push (Promo Only Extended Edit)
19. Chromeo - Don't Turn The Lights On
20. Maroon 5 - Give A Little More
21. 3OH!3 - Double Vision
22. Grum - Can't Shake This Feeling (Promo Only Extended Edit)
23. Naked Highway - In And Out (Promo Only Extended Edit)
24. Cazwell - Ice Cream Truck (Promo Only Extended Edit)
25. Massi & DeLeon feat. Paul Lekakis - I Need A Hit (George Figares Radio Edit)
26. TV Rock feat. Zoe Badwi - Release Me (George Figares Radio Edit)
27. Chris Cox & DJ Frankie - Oh Mama (George Figares Radio Edit)
28. Shontelle - Perfect Nightmare
29. Kelly Rowland - Forever And A Day
30. Kelis - Scream
31. Usher feat. Pitbull - DJ Got Us Fallin' In Love (Promo Only Intro Edit)
32. Taio Cruz - Dynamite (Promo Only Intro Edit)
33. Far East Movement feat. The Cataracs & Dev - Like A G6 (Promo Only Intro Edit)
34. Ten City - That's The Way Love Is
35. Alison Limerick - Where Love Lives
36. D-Mob Introducing Cathy Dennis - C'mon And Get My Love

Dance Mix Video 2011-01 January

01. Chris Brown - Yeah 3X
02. Will.I.Am & Nicki Minaj - Check It Out
03. Ciara - Gimmie Dat
04. The Ones feat. Nomi Ruiz - Let's Celebrate
05. Armand Van Helden & A-Trak Present Duck Sauce - Barbra Streisand
06. Afrojack feat. Eva Simons - Take Over Control
07. Edward Maya feat. Vika Jiqulina - Stereo Love (Promo Only Intro Edit)
08. Inna - Love (Promo Only Intro Edit)
09. Axwell feat. Errol Reid - Nothing But Love (Promo Only Intro Edit)
10. Kraak & Smaak - Squeeze Me
11. Soraya - Self Control
12. Shakira feat. Dizzee Rascal - Loca
13. Nicole Scherzinger - Poison (Promo Only Intro Edit / Dave Aude Club Mix)
14. Ke$ha - Take It Off (Promo Only Intro Edit)
15. Kaci Battaglia feat. Ludacris - Body Shots (Dave Aude Club Mix)
16. Shontelle - Perfect Nightmare (Promo Only Intro Edit / Hex Hector / Mac Quayle Club Remix-Div-A-Matic Edit by Barry Browder)
17. Rihanna - Only Girl (In The World) (Promo Only Intro Edit)
18. Christina Aguilera - You Lost Me (Hex Hector / Mac Quayle Club Remix-Div-A-Matic Edit by Barry Browder)
19. Ray Guell - Love Is The Answer (Dj Chuckie Radio Edit / Definitive Point Video Edit)
20. Erick Morillo & Eddie Thoneick feat. Shawnee Taylor - Live Your Life (Dj Chuckie Radio Edit / Definitive Point Video Edit)
21. Longo & Wainwright feat. Craig Smart - One Life Stand (Dj Chuckie Radio Edit / Definitive Point Video Edit)
22. Tommie Sunshine feat. Oh Snap! - 5AM (A Girl Like You)
23. Swedish House Mafia vs Tinie Tempah - Miami 2 Ibiza
24. Viro & Rob Analyze feat. Odissi - Social Suicide
25. Marlon Deja - Million Years (PO Non-Break Version)
26. LMFAO - Yes (PO Non-Break Version)
27. Basslovers United - Ghetto Supastar (PO Non-Break Version)
28. Nelly Furtado - Night Is Young (Explicit Version)
29. The Beach Girl5 - Scratch (Explicit Version)
30. Kimberly Cole - Smack You (Explicit Version)
31. Raquela - Tell It To My Heart (ISV Video Edit By Jonathan Luke)
32. Gaia & Luna - Give It Up (Promo Only Intro Edit)
33. Kylie Minogue - Get Outta My Way (Promo Only Intro Edit)
34. Massi & DeLeon feat. Paul Lekakis - I Need A Hit (Frank Pellegrino Tribal Mix)
35. Pepper Mashay - Lost Yo Mind (Frank Pellegrino Tribal Mix)
36. Natalia Flores - Going Strong (Frank Pellegrino Tribal Mix)

Dance Mix Video 2011-02 February

01. Katy Perry - Firework (Freemasons Club Mix / Promo Only Intro Edit)
02. Shakira feat. Dizzee Rascal - Loca (Freemasons Club Mix)
03. Kylie Minogue - Get Outta My Way (Promo Only Intro Edit)
04. Chris Willis - Louder (Put Your Hands Up) (Radio Mix)
05. Armand Van Helden & A-Trak Present Duck Sauce - Barbra Streisand (Radio Mix)
06. Dave Aude & David Garcia feat. Sisely Treasure - Dancin' Circles (Radio Mix)
07. The Black Eyed Peas - The Time (Dirty Bit) (Promo Only Intro Edit)
08. Ne-Yo - Beautiful Monster (Promo Only Intro Edit)
09. Chris Brown - Yeah 3X (Promo Only Intro Edit)
10. Tensnake - Coma Cat
11. Christian Falk feat. Robyn - Dream On
12. Moby - Disco Lies
13. Basshunter - Saturday
14. Inna - 10 Minutes
15. BG5 - Scratch
16. Kaskade With EDX feat. Haley - Don't Stop Dancing (Morgan Page Extended Remix)
17. Adam Lambert - If I Had You (Morgan Page Extended Remix)
18. BT - The Emergency (Morgan Page Extended Remix)
19. Pink - Raise Your Glass
20. Kat Deluna feat. Lil Wayne - Unstoppable
21. Paradiso Girls - Who's My B****?
22. Consuelo Costin With Massi & DeLeon - Naked (Massi & DeLeon Mixshow Edit / Div-A-Matic Re-edit By Barry Browder)
23. Massi & DeLeon feat. Paul Lekakis - I Need A Hit (Massi & DeLeon Mixshow Edit)
24. Ray Guell - Love Is The Answer (Div-A-Matic Re-edit By Barry Browder)
25. Edward Maya feat. Mia Martina - Stereo Love
26. Designer Drugs feat. Cerebral Vortex - Through The Prism
27. Serge Devant feat. Hadley - Ghost
28. Pitbull - Bon, Bon
29. Flo Rida - Turn Around (5,4,3,2,1)
30. Roger Sanchez & The Far East Movement feat. Kanobby - 2Gether
31. Sean Ensign - Amazing (7th Heaven Remix)
32. Jonathan Luke - Joy Toy 2.0 (Majik Boys Mix) ISV Video Mix By Jonathan Luke
33. Brian Kent - I'll Find A Way (7th Heaven Remix / (Majik Boys Mix) ISV Video Mix By Jonathan Luke
34. David Bowie - Let's Dance
35. The Jacksons - Blame It On The Boogie
36. Kool & The Gang - Get Down On It

Dance Mix Video 2011-03 March

01. Shakira feat. Dizzee Rascal - Loca (Freemasons Club Mix)
02. George Michael - I Want Your Sex (Freemasons Remix)
03. Freemasons feat. Wynter Gordon - Believer (Radio Edit Master)
04. Kat Deluna - Party O'Clock (Promo Only Intro Edit)
05. Pink - Raise Your Glass (Promo Only Intro Edit)
06. Ke$ha - We R Who We R (Promo Only Intro Edit)
07. Consuelo Costin With Massi & DeLeon - Naked (Promo Only Intro Edit / DJ Escape Mix)
08. TV Rock feat. Zoe Badwi - Release Me (Promo Only Intro Edit)
09. Zayra - Baby Likes To Bang (DJ Escape Mix)
10. Nervo feat. Ollie James - Irresistible
11. Sophia Cruz - Under Your Spell
12. Madison Park - I Stumble, Fall
13. Jay Ko feat. Anya - One
14. Axwell feat. Errol Reid - Nothing But Love
15. Mischa Daniels & Tara McDonald - Beats For You
16. Jay Sean feat. Nicki Minaj - 2012 (It Ain't The End) (Promo Only Intro Edit)
17. The Black Eyed Peas - The Time (Dirty Bit) (Promo Only Intro Edit)
18. Flo Rida - Turn Around (5,4,3,2,1) (Promo Only Intro Edit)
19. Martin Solveig & Dragonette - Hello
20. Far East Movement & Roger Sanchez feat. Kanobby - 2Gether
21. Armand Van Helden & A-Trak Present Duck Sauce - Barbra Streisand
22. Katy Perry - Firework (Lenny B. Remix Edit)
23. Ryan Cabrera - True (Lenny B. Remix Edit)
24. Natasha Bedingfield - Touch (Lenny B. Remix Edit)
25. Sean Kingston - Party All Night (Sleep All Day)
26. Chris Willis - Louder (Put Your Hands Up)
27. Pitbull feat. T-Pain - Hey Baby (Drop It To The Floor)
28. Kris Menace feat. Emil - Walkin' On The Moon
29. Luxe - Simple Attraction
30. Chromeo feat. Elly Jackson - Hot Mess
31. Enrique Iglesias feat. Ludacris - Tonight (I'm Lovin' You) (Promo Only Intro Edit)
32. Enrique Iglesias feat. Pitbull - I Like It (Promo Only Intro Edit)
33. Taio Cruz feat. Travie McCoy - Higher (Promo Only Intro Edit)
34. Beyonce feat. Shakira - Beautiful Liar
35. Gwen Stefani feat. Eve - Rich Girl
36. Christina Aguilera feat. Redman - Dirrty

Dance Mix Video 2011-04 April

01. Cee Lo Green - Forget You (Promo Only Intro Edit)
02. Madcon - Beggin' (Promo Only Intro Edit)
03. Pixie Lott - Boys And Girls (Promo Only Intro Edit)
04. Enrique Iglesias feat. Ludacris - Tonight (I'm Lovin' You) (Promo Only Intro Edit)
05. Britney Spears - Piece Of Me (Bimbo Jones Remix)
06. Rihanna - S&M (Promo Only Intro Edit)
07. Katy Perry - Teenage Dream (Promo Only Intro Edit)
08. Pink - Raise Your Glass (Promo Only Intro Edit)
09. Sean Kingston - Party All Night (Sleep All Day) (Promo Only Intro Edit)
10. Flo Rida feat. Akon - Who Dat Girl
11. Pitbull feat. T-Pain - Hey Baby (Drop It To The Floor)
12. Tiesto feat. Busta Rhymes - C'mon (Catch Em By Surprise)
13. Ari Gold - Make My Body Rock
14. Daniel Bovie & Roy Rox vs Ricky Rivaro - My Destiny
15. Ron Perkov - It Doesn't Matter
16. Jason Dottley - Hit Play (The Perry Twins Ride That Beat Edit)
17. Salme feat. Noa Tylo - So Delicious (Massi & DeLeon Massive Radio Mix)
18. J786 - Rock Tonight (Ralphi Rosario Edit)
19. Faithless - Tweak Your Nipple
20. BT - The Emergency
21. Jes - Awaken
22. i SQUARE - Hey Sexy Lady
23. David Guetta feat. Rihanna - Who's That Chick?
24. Taio Cruz feat. Travie McCoy - Higher
25. Madison Park - I Stumble, Fall (Beechkraft Radio Mix)
26. Kelsey B - Beauty Queen (Beechkraft Radio Mix)
27. Alexis Jordan - Good Girl (Beechkraft Radio Mix)
28. Wolfgang Gartner - Illmerica
29. Benny Benassi vs. Iggy Pop - Electro Sixteen
30. Bob Sinclar feat. Sean Paul - Tik Tok
31. Gabry Ponte feat. Maya Days - Sexy DJ (In Da Club)
32. Elena - Disco Romancing
33. Chris Willis - Louder (Put Your Hands Up)
34. Naked Eyes - Promises, Promises
35. Duran Duran - Union Of The Snake
36. Hall & Oates - Out Of Touch
--

Показать скриншоты

         
 [im]http://lostpic.net/images/5f8be523e47e7cdced51a2eccb66d172.jpg[/imgs]

BoxeR

Пост 16-Апр-2012 22:14

[Цитировать]

Шансон родной шансон !!!

cataman

Пост 16-Апр-2012 22:01

[Цитировать]

Григорий Лепс - Научись летать
Год выхода: 2011
Режиссер: Шансон
Страна: Россия
Продолжительность: 01:58:0523, 25, 26 февраля и 7 марта 2011 года в концертном зале Crocus City Hall прошли концерты одного из самых ярких артистов российской сцены - Григория Лепса. Зрители услышали не только любимые хиты, но и смогли первыми оценить абсолютно новые песни с альбома "Пенсне"! Такого концерта еще не было! Такого драйва, искрометности, креатива, такого зрительского приема, благодарности с обеих сторон… Григорий превратил свое выступление в необычное музыкальное действо, выполненное со вкусом и до краев наполненное эмоциями. Мощный голос, необъятный диапазон и волна неоспоримой мужской энергии сделали концерт отдельным, ни с чем не сравнимым удовольствием. Выступления состоялись в одном из крупнейших концертных залов России - Crocus City Hall. Эта новая концертная площадка позволила артисту воплотить все задумки как в плане звука и света, так и в плане сценического пространства: декорации на крупных концертах Лепса всегда поражали размахом, креативностью и были неотъемлемой частью музыкального представления. В центре сцены располагался объемный 3D экран в виде сюрреалистического электронного сердца с расходящимися от него световыми лучами. Международной творческой командой под руководством продюсеров концерта к каждой песне был разработан специальный видеоарт. На "экране-сердце" пульсировали ритмы и образы, отражающие страсть и эмоциональный накал каждой песни.Треклист:
01. Научись летать
02. Клуб одиноких сердец подполковника Пеппера
03. Зима
04. Настоящая женщина
05. Вавилон
06. Водопад
07. Берега
08. Беги по небу
09. Ну и что
10. Танго разбитых сердец
11. Небо
12. Бессонница
13. Что может человек
14. Я слушал дождь
15. Парус
16. Купола
17. Я тебя не люблю
18. Уходи красиво
19. Обернитесь
20. Рюмка водки на столе
21. Двое у окна
22. Зачем тебе я
23. Она
Семпл
Перевод: Оригинал
Кодек: XviD
Качество: BDRip [Рип с Blu-ray]
Видео: 1267 kb/s, 720x400
Звук: AC3,384 kb/s(6 ch)

Скриншоты

   
 

cataman

Пост 27-Мар-2012 08:59

[Цитировать]

Александр Розенбаум-Юбилейный концерт-- ----Год выхода: 2011
Страна: Россия
Жанр: Шансон
Качество: DVBRip
Формат видео: MPG
Видео: PAL, 720x576 (4:3), 25,000 кадров/сек, MPEG-2 Video, ~5359 Кбит/сек avg, 0.517 bit/pixel
Аудио: 48,0 КГц, MPEG-1 Audio layer 2, 2 ch, ~256 Кбит/сек
Продолжительность: 02:14:26-«Гоп-стоп, он подошел из-за угла…», перефразировав один из первых «катушечных» хитов самого певца, можно сказать о неожиданном пришествии на сцену и в нашу жизнь человека, который по всем раскладам (семейные традиции, диплом мединститута) должен был стать врачом. Но не случилось. И вот уже почти тридцать лет, начиная с памятного выступления 14 октября 1983 года в Доме культуры МВД имени Дзержинского в родном Ленинграде, Александр Розенбаум выходит к нам наперевес с гитарой и ведет прямой, мужской разговор с самых разных сцен огромной страны – от Кремлевского Дворца до армейских красных уголков, актовых залов институтов и сельских клубов.
Человек со стержнем, неравнодушный ко всему происходящему в жизни мужчина и талантливый артист, однажды избрал свой образ и ни разу за всю карьеру не изменил ему. На сцене это и лирик, и дерзкий, может быть, иногда даже - жесткий человек с гитарой, воплощает в себе все качества, которые ассоциируются у всех у нас, со столь дефицитным ныне понятием - «настоящий мужик»!
-

Треклист

01.Гаврош
02.Глухари
03.Посвещение актрисе-Лайма Вайкуле
04.Упереться,не сломаться
05.Оттепель-Иосиф Кобзон и Гр."Республика"
06.Дорога жизни
07.Вещая судьба-Александр Маршал
08.Мечта блатного поэта
09.Гитара-Любовь Успенская
10.Братан
11.Посвещение-Андрей Макаревич
12.Песня еврейского портнова-Владимир Назаров-н.а.России
13.Размышление на прогулке
14.Бабья доля... - Хор им."Пятницкого"
15.Щегол
16.Каналы-Диана Арбенина
17.Ночной кабак
18.Дождь,над Невой туман-Михаил Шуфутинский
19.Барин
20.Снег и метель-Лариса Долина
21.Деревянная судьба-Надежда Бабкина и Анс."Русская песня"
22.Вальс-бостон
23.Москва-Нева - Валерий Сюткин
24.Гоп-стоп
25.Заходите к нам на огонёк-Владимир Винокур
26.Утки
27.Заключительные слова благодарности
28.Криденc
--

MediaInfo

Общее
Полное имя : Q:КОНЦЕРТЫ & КЛИПЫЮбилейный концерт Александра Розенбаума_DVB by CLIPMAN.mpg
Формат : MPEG-PS
Размер файла : 5,38 Гбайт
Продолжительность : 2 ч. 14 м.
Режим общего битрейта : Переменный
Общий поток : 5729 Кбит/сек
Библиотека кодирования : (c) 1997-2004 Womble Multimedia, Inc. / MPEG-VCR V3.14 (06/2004) / Jun 27 2004
Видео
Идентификатор : 224 (0xE0)
Формат : MPEG Video
Версия формата : Version 2
Профиль формата : Main@Main
Параметр BVOP формата : Да
Параметр матрицы формата : Выборочная
Продолжительность : 2 ч. 14 м.
Вид битрейта : Переменный
Битрейт : 5359 Кбит/сек
Максимальный битрейт : 10000 Кбит/сек
Ширина : 720 пикселей
Высота : 576 пикселей
Соотношение сторон : 4:3
Частота кадров : 25,000 кадров/сек
Стандарт вещания : PAL
Цветовое пространство : YUV
Субдискретизация насыщенности : 4:2:0
Битовая глубина : 8 бит
Тип развёртки : Чересстрочная
Порядок развёртки : Верхнее поле первое
Метод сжатия : С потерями
Бит/(Пиксели*Кадры) : 0.517
Размер потока : 5,03 Гбайт (94%)
Библиотека кодирования : (c) 1997-2004 Womble Multimedia, Inc. / MPEG-VCR V3.14 (06/2004) / Jun 27 2004
Аудио
Идентификатор : 192 (0xC0)
Формат : MPEG Audio
Версия формата : Version 1
Профиль формата : Layer 2
Продолжительность : 2 ч. 14 м.
Вид битрейта : Постоянный
Битрейт : 256 Кбит/сек
Каналы : 2 канала
Частота : 48,0 КГц
Метод сжатия : С потерями
Задержка видео : -40 мс.
Размер потока : 246 Мбайт (4%)
-

Скриншоты

             

радист

Пост 24-Фев-2012 19:49

[Цитировать]

Паваротти/Pavarotti The Duets
Год выпуска: 2008
Жанр: Classical, Rock,Blues
Продолжительность: 01:10:17

01. Bryan Adams - 'O Sole Mio
02. Andrea Bocelli - Notte 'E Piscatore
03. Bon Jovi - Let It Rain
04. Bono / The Edge / Brian Eno - Miss Sarajevo
05. James Brown - It's A Man's World
06. Marian Carey - Hero
07. Eric Clapton - Holy Mother
08. Sheryl Crow - La Ci Darem La Mano
09. Celine Dion - I Hate You Then I Love You
10. Eurythmics - There Must Be An Angel
11. Elton John - Live Like Horses
12. Lionel Richie - The Magic Of Love
13. Sting - Panis Angelicus
14. Zucchero - Miserere
Bonus Music Videos:
Live Like Horses & Miss Sarajevo

Описание: На свои сольные концерты Паваротти собирал сотни тысяч слушателей. На одном из выступлений в нью-йоркском «Метрополитен Опера» зрители настолько были покорены красотой голоса певца, что занавес пришлось поднимать 165 раз. Этот случай был занесен в Книгу рекордов Гиннесса.
500 тысяч зрителей слушали его концерт в Центральном парке Нью-Йорка — такую аудиторию не собирал ни один из популярных исполнителей.
С 1992 года Паваротти участвовал в благотворительных концертах «Паваротти и друзья». Благотворительный проект получил колоссальную известность благодаря участию рок-музыкантов Брайана Мэя и Роджера Тэйлора (Queen), Стинга, Боно и Эджа (U2), Эрика Клептона, Джона Бон Джови, Брайана Адамса, Селин Дион группы Cranberries, известных итальянских исполнителей, которые вместе с Паваротти и оркестром пели свои лучшие песни. Работать в этом проекте почитали за честь многие поп- и рок-музыканты. Альбомы, записанные проектом «Паваротти и друзья», стали сенсацией на рынке популярной музыки.

Качество: DVD9
Формат: DVD Video
Видео кодек: MPEG2
Аудио кодек: PCM Stereo,DTS
Видео: Mpeg-2 NTSC 4:3 (720x480), ~8000 Кбит/сек VBR, 29,970 кадров/сек
Аудио: PCM Stereo, DTS,1536 Кбит/сек, 48,0 КГц
Аудио #1: DTS, 1510 Кбит/сек, 6 каналов, 48,0 КГц
Аудио #2: PCM, 1536 Кбит/сек, 2 канала, 48,0 КГц

Скриншоты

         

MediaInfo

Код:
Общее
Полное имя : D:\ готовые\povarotti\VIDEO_TS\VIDEO_TS.BUP
Формат : DVD Video
Профиль формата : Menu
Размер файла : 16,0 Кбайт
Видео
Идентификатор : 224 (0xE0)
Формат : MPEG Video
Версия формата : Version 2
Вид битрейта : Переменный
Ширина : 720 пикс.
Высота : 480 пикс.
Соотношение сторон : 4:3
Частота кадров : 29,970 кадр/сек
Стандарт вещания : NTSC
Метод сжатия : С потерями
Аудио
Формат : PCM
Канал(ы) : 2 канала(ов)
Частота : 48,0 КГц
Текст
Формат : RLE
Формат/Информация : Run-length encoding
Битовая глубина : 2 бит
Общее
Полное имя : D:\ готовые\povarotti\VIDEO_TS\VIDEO_TS.IFO
Формат : DVD Video
Профиль формата : Menu
Размер файла : 16,0 Кбайт
Видео
Идентификатор : 224 (0xE0)
Формат : MPEG Video
Версия формата : Version 2
Вид битрейта : Переменный
Ширина : 720 пикс.
Высота : 480 пикс.
Соотношение сторон : 4:3
Частота кадров : 29,970 кадр/сек
Стандарт вещания : NTSC
Метод сжатия : С потерями
Аудио
Формат : PCM
Канал(ы) : 2 канала(ов)
Частота : 48,0 КГц
Текст
Формат : RLE
Формат/Информация : Run-length encoding
Битовая глубина : 2 бит
Общее
Полное имя : D:\ готовые\povarotti\VIDEO_TS\VIDEO_TS.VOB
Формат : MPEG-PS
Размер файла : 157 Мбайт
Видео
Идентификатор : 224 (0xE0)
Формат : MPEG Video
Версия формата : Version 2
Профиль формата : Main@Main
Параметр BVOP формата : Да
Параметр матрицы формата : По умолчанию
Параметры GOP формата : M=3, N=15
Вид битрейта : Переменный
Битрейт : 5000 Кбит/сек
Ширина : 720 пикс.
Высота : 480 пикс.
Соотношение сторон : 4:3
Частота кадров : 29,970 кадр/сек
Стандарт вещания : NTSC
Цветовое пространство : YUV
Подвыборка цветности : 4:2:0
Битовая глубина : 8 бит
Тип развёртки : Чересстрочная
Порядок развёртки : Верхнее поле первое
Метод сжатия : С потерями
Бит/(Пиксели*Кадры) : 0.483
Аудио
Идентификатор : 189 (0xBD)-160 (0xA0)
Формат : PCM
Параметр Endianness формата : Big
Параметр Sign формата : Signed
Режим смешивания : DVD-Video
Вид битрейта : Постоянный
Битрейт : 1536 Кбит/сек
Канал(ы) : 2 канала(ов)
Расположение каналов : Front: L R
Частота : 48,0 КГц
Битовая глубина : 16 бит
Текст
Идентификатор : 189 (0xBD)-32 (0x20)
Формат : RLE
Формат/Информация : Run-length encoding
Режим смешивания : DVD-Video
Меню
Общее
Полное имя : D:\ готовые\povarotti\VIDEO_TS\VTS_01_0.BUP
Формат : DVD Video
Профиль формата : Program
Размер файла : 54,0 Кбайт
Продолжительность : 1 ч. 10 м.
Общий поток : 104 бит/сек
Видео
Идентификатор : 224 (0xE0)
Формат : MPEG Video
Версия формата : Version 2
Продолжительность : 1 ч. 10 м.
Вид битрейта : Переменный
Ширина : 720 пикс.
Высота : 480 пикс.
Соотношение сторон : 4:3
Частота кадров : 29,970 кадр/сек
Стандарт вещания : NTSC
Метод сжатия : С потерями
Аудио #1
Идентификатор : 0 (0x0)
Формат : PCM
Продолжительность : 1 ч. 10 м.
Канал(ы) : 2 канала(ов)
Частота : 48,0 КГц
Аудио #2
Идентификатор : 137 (0x89)
Формат : DTS
Формат/Информация : Digital Theater Systems
Продолжительность : 1 ч. 10 м.
Канал(ы) : 6 канала(ов)
Частота : 48,0 КГц
Метод сжатия : С потерями
Меню
Продолжительность : 1 ч. 10 м.
00:00:00.000 : Chapter 1
00:01:12.233 : Chapter 2
00:06:34.999 : Chapter 3
00:12:11.632 : Chapter 4
00:17:16.565 : Chapter 5
00:23:51.898 : Chapter 6
00:28:08.598 : Chapter 7
00:32:45.998 : Chapter 8
00:38:07.298 : Chapter 9
00:43:02.664 : Chapter 10
00:46:10.864 : Chapter 11
00:50:09.797 : Chapter 12
00:55:15.030 : Chapter 13
00:59:48.230 : Chapter 14
01:04:30.830 : Chapter 15
List (Audio) : 0 / 1
Общее
Полное имя : D:\ готовые\povarotti\VIDEO_TS\VTS_01_0.IFO
Формат : DVD Video
Профиль формата : Program
Размер файла : 54,0 Кбайт
Продолжительность : 1 ч. 10 м.
Общий поток : 104 бит/сек
Видео
Идентификатор : 224 (0xE0)
Формат : MPEG Video
Версия формата : Version 2
Продолжительность : 1 ч. 10 м.
Вид битрейта : Переменный
Ширина : 720 пикс.
Высота : 480 пикс.
Соотношение сторон : 4:3
Частота кадров : 29,970 кадр/сек
Стандарт вещания : NTSC
Метод сжатия : С потерями
Аудио #1
Идентификатор : 0 (0x0)
Формат : PCM
Продолжительность : 1 ч. 10 м.
Канал(ы) : 2 канала(ов)
Частота : 48,0 КГц
Аудио #2
Идентификатор : 137 (0x89)
Формат : DTS
Формат/Информация : Digital Theater Systems
Продолжительность : 1 ч. 10 м.
Канал(ы) : 6 канала(ов)
Частота : 48,0 КГц
Метод сжатия : С потерями
Меню
Продолжительность : 1 ч. 10 м.
00:00:00.000 : Chapter 1
00:01:12.233 : Chapter 2
00:06:34.999 : Chapter 3
00:12:11.632 : Chapter 4
00:17:16.565 : Chapter 5
00:23:51.898 : Chapter 6
00:28:08.598 : Chapter 7
00:32:45.998 : Chapter 8
00:38:07.298 : Chapter 9
00:43:02.664 : Chapter 10
00:46:10.864 : Chapter 11
00:50:09.797 : Chapter 12
00:55:15.030 : Chapter 13
00:59:48.230 : Chapter 14
01:04:30.830 : Chapter 15
List (Audio) : 0 / 1
Общее
Полное имя : D:\ готовые\povarotti\VIDEO_TS\VTS_01_0.VOB
Формат : MPEG-PS
Размер файла : 228 Кбайт
Продолжительность : 33 мс.
Общий поток : 56,6 Мбит/сек
Видео
Идентификатор : 224 (0xE0)
Формат : MPEG Video
Версия формата : Version 2
Профиль формата : Main@Main
Параметр BVOP формата : Нет
Параметр матрицы формата : По умолчанию
Параметры GOP формата : N=1
Продолжительность : 33 мс.
Вид битрейта : Постоянный
Битрейт : 8000 Кбит/сек
Ширина : 720 пикс.
Высота : 480 пикс.
Соотношение сторон : 4:3
Частота кадров : 29,970 кадр/сек
Стандарт вещания : NTSC
Цветовое пространство : YUV
Подвыборка цветности : 4:2:0
Битовая глубина : 8 бит
Тип развёртки : Прогрессивная
Порядок развёртки : Верхнее поле первое
Метод сжатия : С потерями
Бит/(Пиксели*Кадры) : 0.772
Размер потока : 32,2 Кбайт (14%)
Текст
Идентификатор : 189 (0xBD)-32 (0x20)
Формат : RLE
Формат/Информация : Run-length encoding
Режим смешивания : DVD-Video
Меню
Общее
Полное имя : D:\ готовые\povarotti\VIDEO_TS\VTS_01_1.VOB
Формат : MPEG-PS
Размер файла : 1024 Мбайт
Продолжительность : 14 м.
Общий поток : 9720 Кбит/сек
Видео
Идентификатор : 224 (0xE0)
Формат : MPEG Video
Версия формата : Version 2
Профиль формата : Main@Main
Параметр BVOP формата : Да
Параметр матрицы формата : По умолчанию
Продолжительность : 14 м.
Вид битрейта : Постоянный
Битрейт : 6500 Кбит/сек
Ширина : 720 пикс.
Высота : 480 пикс.
Соотношение сторон : 4:3
Частота кадров : 29,970 кадр/сек
Стандарт вещания : NTSC
Цветовое пространство : YUV
Подвыборка цветности : 4:2:0
Битовая глубина : 8 бит
Тип развёртки : Чересстрочная
Порядок развёртки : Нижнее поле первое
Метод сжатия : С потерями
Бит/(Пиксели*Кадры) : 0.628
Размер потока : 682 Мбайт (67%)
Аудио #1
Идентификатор : 189 (0xBD)-137 (0x89)
Формат : DTS
Формат/Информация : Digital Theater Systems
Режим смешивания : DVD-Video
Продолжительность : 14 м.
Вид битрейта : Постоянный
Битрейт : 1510 Кбит/сек
Канал(ы) : 6 канала(ов)
Расположение каналов : Front: L C R, Side: L R, LFE
Частота : 48,0 КГц
Битовая глубина : 24 бит
Метод сжатия : С потерями
Задержка видео : 33 мс.
Размер потока : 159 Мбайт (16%)
Аудио #2
Идентификатор : 189 (0xBD)-160 (0xA0)
Формат : PCM
Параметр Endianness формата : Big
Параметр Sign формата : Signed
Режим смешивания : DVD-Video
Продолжительность : 14 м.
Вид битрейта : Постоянный
Битрейт : 1536 Кбит/сек
Канал(ы) : 2 канала(ов)
Расположение каналов : Front: L R
Частота : 48,0 КГц
Битовая глубина : 16 бит
Задержка видео : 33 мс.
Размер потока : 162 Мбайт (16%)
Меню
Общее
Полное имя : D:\ готовые\povarotti\VIDEO_TS\VTS_01_2.VOB
Формат : MPEG-PS
Размер файла : 1024 Мбайт
Продолжительность : 14 м.
Общий поток : 9722 Кбит/сек
Видео
Идентификатор : 224 (0xE0)
Формат : MPEG Video
Версия формата : Version 2
Профиль формата : Main@Main
Параметр BVOP формата : Да
Параметр матрицы формата : По умолчанию
Продолжительность : 14 м.
Вид битрейта : Постоянный
Битрейт : 6500 Кбит/сек
Ширина : 720 пикс.
Высота : 480 пикс.
Соотношение сторон : 4:3
Частота кадров : 29,970 кадр/сек
Стандарт вещания : NTSC
Цветовое пространство : YUV
Подвыборка цветности : 4:2:0
Битовая глубина : 8 бит
Тип развёртки : Чересстрочная
Порядок развёртки : Нижнее поле первое
Метод сжатия : С потерями
Бит/(Пиксели*Кадры) : 0.628
Размер потока : 683 Мбайт (67%)
Аудио #1
Идентификатор : 189 (0xBD)-137 (0x89)
Формат : DTS
Формат/Информация : Digital Theater Systems
Режим смешивания : DVD-Video
Продолжительность : 14 м.
Вид битрейта : Постоянный
Битрейт : 1510 Кбит/сек
Канал(ы) : 6 канала(ов)
Расположение каналов : Front: L C R, Side: L R, LFE
Частота : 48,0 КГц
Битовая глубина : 24 бит
Метод сжатия : С потерями
Задержка видео : -321 мс.
Размер потока : 159 Мбайт (16%)
Аудио #2
Идентификатор : 189 (0xBD)-160 (0xA0)
Формат : PCM
Параметр Endianness формата : Big
Параметр Sign формата : Signed
Режим смешивания : DVD-Video
Продолжительность : 14 м.
Вид битрейта : Постоянный
Битрейт : 1536 Кбит/сек
Канал(ы) : 2 канала(ов)
Расположение каналов : Front: L R
Частота : 48,0 КГц
Битовая глубина : 16 бит
Задержка видео : -334 мс.
Размер потока : 162 Мбайт (16%)
Меню
Общее
Полное имя : D:\ готовые\povarotti\VIDEO_TS\VTS_01_3.VOB
Формат : MPEG-PS
Размер файла : 1024 Мбайт
Продолжительность : 14 м.
Общий поток : 9723 Кбит/сек
Видео
Идентификатор : 224 (0xE0)
Формат : MPEG Video
Версия формата : Version 2
Профиль формата : Main@Main
Параметр BVOP формата : Да
Параметр матрицы формата : По умолчанию
Параметры GOP формата : M=3, N=15
Продолжительность : 14 м.
Вид битрейта : Постоянный
Битрейт : 6500 Кбит/сек
Ширина : 720 пикс.
Высота : 480 пикс.
Соотношение сторон : 4:3
Частота кадров : 29,970 кадр/сек
Стандарт вещания : NTSC
Цветовое пространство : YUV
Подвыборка цветности : 4:2:0
Битовая глубина : 8 бит
Тип развёртки : Чересстрочная
Порядок развёртки : Нижнее поле первое
Метод сжатия : С потерями
Бит/(Пиксели*Кадры) : 0.628
Размер потока : 683 Мбайт (67%)
Аудио #1
Идентификатор : 189 (0xBD)-137 (0x89)
Формат : DTS
Формат/Информация : Digital Theater Systems
Режим смешивания : DVD-Video
Продолжительность : 14 м.
Вид битрейта : Постоянный
Битрейт : 1510 Кбит/сек
Канал(ы) : 6 канала(ов)
Расположение каналов : Front: L C R, Side: L R, LFE
Частота : 48,0 КГц
Битовая глубина : 24 бит
Метод сжатия : С потерями
Задержка видео : -319 мс.
Размер потока : 159 Мбайт (16%)
Аудио #2
Идентификатор : 189 (0xBD)-160 (0xA0)
Формат : PCM
Параметр Endianness формата : Big
Параметр Sign формата : Signed
Режим смешивания : DVD-Video
Продолжительность : 14 м.
Вид битрейта : Постоянный
Битрейт : 1536 Кбит/сек
Канал(ы) : 2 канала(ов)
Расположение каналов : Front: L R
Частота : 48,0 КГц
Битовая глубина : 16 бит
Задержка видео : -331 мс.
Размер потока : 162 Мбайт (16%)
Меню
Общее
Полное имя : D:\ готовые\povarotti\VIDEO_TS\VTS_01_4.VOB
Формат : MPEG-PS
Размер файла : 1024 Мбайт
Продолжительность : 14 м.
Общий поток : 9721 Кбит/сек
Видео
Идентификатор : 224 (0xE0)
Формат : MPEG Video
Версия формата : Version 2
Профиль формата : Main@Main
Параметр BVOP формата : Да
Параметр матрицы формата : По умолчанию
Параметры GOP формата : M=3, N=15
Продолжительность : 14 м.
Вид битрейта : Постоянный
Битрейт : 6500 Кбит/сек
Ширина : 720 пикс.
Высота : 480 пикс.
Соотношение сторон : 4:3
Частота кадров : 29,970 кадр/сек
Стандарт вещания : NTSC
Цветовое пространство : YUV
Подвыборка цветности : 4:2:0
Битовая глубина : 8 бит
Тип развёртки : Чересстрочная
Порядок развёртки : Нижнее поле первое
Метод сжатия : С потерями
Бит/(Пиксели*Кадры) : 0.628
Размер потока : 683 Мбайт (67%)
Аудио #1
Идентификатор : 189 (0xBD)-137 (0x89)
Формат : DTS
Формат/Информация : Digital Theater Systems
Режим смешивания : DVD-Video
Продолжительность : 14 м.
Вид битрейта : Постоянный
Битрейт : 1510 Кбит/сек
Канал(ы) : 6 канала(ов)
Расположение каналов : Front: L C R, Side: L R, LFE
Частота : 48,0 КГц
Битовая глубина : 24 бит
Метод сжатия : С потерями
Задержка видео : -325 мс.
Размер потока : 159 Мбайт (16%)
Аудио #2
Идентификатор : 189 (0xBD)-160 (0xA0)
Формат : PCM
Параметр Endianness формата : Big
Параметр Sign формата : Signed
Режим смешивания : DVD-Video
Продолжительность : 14 м.
Вид битрейта : Постоянный
Битрейт : 1536 Кбит/сек
Канал(ы) : 2 канала(ов)
Расположение каналов : Front: L R
Частота : 48,0 КГц
Битовая глубина : 16 бит
Задержка видео : -329 мс.
Размер потока : 162 Мбайт (16%)
Меню
Общее
Полное имя : D:\ готовые\povarotti\VIDEO_TS\VTS_01_5.VOB
Формат : MPEG-PS
Размер файла : 797 Мбайт
Продолжительность : 11 м.
Общий поток : 9720 Кбит/сек
Видео
Идентификатор : 224 (0xE0)
Формат : MPEG Video
Версия формата : Version 2
Профиль формата : Main@Main
Параметр BVOP формата : Да
Параметр матрицы формата : По умолчанию
Продолжительность : 11 м.
Вид битрейта : Постоянный
Битрейт : 6500 Кбит/сек
Ширина : 720 пикс.
Высота : 480 пикс.
Соотношение сторон : 4:3
Частота кадров : 29,970 кадр/сек
Стандарт вещания : NTSC
Цветовое пространство : YUV
Подвыборка цветности : 4:2:0
Битовая глубина : 8 бит
Тип развёртки : Чересстрочная
Порядок развёртки : Нижнее поле первое
Метод сжатия : С потерями
Бит/(Пиксели*Кадры) : 0.628
Размер потока : 532 Мбайт (67%)
Аудио #1
Идентификатор : 189 (0xBD)-137 (0x89)
Формат : DTS
Формат/Информация : Digital Theater Systems
Режим смешивания : DVD-Video
Продолжительность : 11 м.
Вид битрейта : Постоянный
Битрейт : 1510 Кбит/сек
Канал(ы) : 6 канала(ов)
Расположение каналов : Front: L C R, Side: L R, LFE
Частота : 48,0 КГц
Битовая глубина : 24 бит
Метод сжатия : С потерями
Задержка видео : -319 мс.
Размер потока : 124 Мбайт (16%)
Аудио #2
Идентификатор : 189 (0xBD)-160 (0xA0)
Формат : PCM
Параметр Endianness формата : Big
Параметр Sign формата : Signed
Режим смешивания : DVD-Video
Продолжительность : 11 м.
Вид битрейта : Постоянный
Битрейт : 1536 Кбит/сек
Канал(ы) : 2 канала(ов)
Расположение каналов : Front: L R
Частота : 48,0 КГц
Битовая глубина : 16 бит
Задержка видео : -336 мс.
Размер потока : 126 Мбайт (16%)
Меню
Общее
Полное имя : D:\ готовые\povarotti\VIDEO_TS\VTS_02_0.BUP
Формат : DVD Video
Профиль формата : Program
Размер файла : 18,0 Кбайт
Продолжительность : 500 мс.
Общий поток : 295 Кбит/сек
Видео
Идентификатор : 224 (0xE0)
Формат : MPEG Video
Версия формата : Version 2
Продолжительность : 501 мс.
Вид битрейта : Переменный
Ширина : 720 пикс.
Высота : 480 пикс.
Соотношение сторон : 4:3
Частота кадров : 29,970 кадр/сек
Стандарт вещания : NTSC
Метод сжатия : С потерями
Меню
Продолжительность : 500 мс.
00:00:00.000 : Chapter 1
Общее
Полное имя : D:\ готовые\povarotti\VIDEO_TS\VTS_02_0.IFO
Формат : DVD Video
Профиль формата : Program
Размер файла : 18,0 Кбайт
Продолжительность : 500 мс.
Общий поток : 295 Кбит/сек
Видео
Идентификатор : 224 (0xE0)
Формат : MPEG Video
Версия формата : Version 2
Продолжительность : 501 мс.
Вид битрейта : Переменный
Ширина : 720 пикс.
Высота : 480 пикс.
Соотношение сторон : 4:3
Частота кадров : 29,970 кадр/сек
Стандарт вещания : NTSC
Метод сжатия : С потерями
Меню
Продолжительность : 500 мс.
00:00:00.000 : Chapter 1
Общее
Полное имя : D:\ готовые\povarotti\VIDEO_TS\VTS_02_0.VOB
Формат : MPEG-PS
Размер файла : 52,0 Кбайт
Продолжительность : 33 мс.
Общий поток : 12,9 Мбит/сек
Видео
Идентификатор : 224 (0xE0)
Формат : MPEG Video
Версия формата : Version 2
Профиль формата : Main@Main
Параметр BVOP формата : Нет
Параметр матрицы формата : По умолчанию
Параметры GOP формата : N=1
Продолжительность : 33 мс.
Вид битрейта : Постоянный
Битрейт : 8000 Кбит/сек
Ширина : 720 пикс.
Высота : 480 пикс.
Соотношение сторон : 4:3
Частота кадров : 29,970 кадр/сек
Стандарт вещания : NTSC
Цветовое пространство : YUV
Подвыборка цветности : 4:2:0
Битовая глубина : 8 бит
Тип развёртки : Прогрессивная
Порядок развёртки : Верхнее поле первое
Метод сжатия : С потерями
Бит/(Пиксели*Кадры) : 0.772
Размер потока : 32,2 Кбайт (62%)
Текст
Идентификатор : 189 (0xBD)-32 (0x20)
Формат : RLE
Формат/Информация : Run-length encoding
Режим смешивания : DVD-Video
Меню
Общее
Полное имя : D:\ готовые\povarotti\VIDEO_TS\VTS_02_1.VOB
Формат : MPEG-PS
Размер файла : 8,00 Кбайт
Продолжительность : 33 мс.
Общий поток : 1986 Кбит/сек
Видео
Идентификатор : 224 (0xE0)
Формат : MPEG Video
Версия формата : Version 2
Профиль формата : Main@Main
Параметр BVOP формата : Нет
Параметр матрицы формата : По умолчанию
Продолжительность : 33 мс.
Вид битрейта : Постоянный
Битрейт : 8000 Кбит/сек
Ширина : 720 пикс.
Высота : 480 пикс.
Соотношение сторон : 4:3
Частота кадров : 29,970 кадр/сек
Стандарт вещания : NTSC
Цветовое пространство : YUV
Подвыборка цветности : 4:2:0
Битовая глубина : 8 бит
Тип развёртки : Прогрессивная
Порядок развёртки : Верхнее поле первое
Метод сжатия : С потерями
Бит/(Пиксели*Кадры) : 0.772
Размер потока : 32,2 Кбайт
Меню
Общее
Полное имя : D:\ готовые\povarotti\VIDEO_TS\VTS_03_0.BUP
Формат : DVD Video
Профиль формата : Program
Размер файла : 26,0 Кбайт
Продолжительность : 9 м. 27 с.
Общий поток : 375 бит/сек
Видео
Идентификатор : 224 (0xE0)
Формат : MPEG Video
Версия формата : Version 2
Продолжительность : 9 м. 27 с.
Вид битрейта : Переменный
Ширина : 720 пикс.
Высота : 480 пикс.
Соотношение сторон : 4:3
Частота кадров : 29,970 кадр/сек
Стандарт вещания : NTSC
Метод сжатия : С потерями
Аудио
Идентификатор : 0 (0x0)
Формат : PCM
Продолжительность : 9 м. 27 с.
Канал(ы) : 2 канала(ов)
Частота : 48,0 КГц
Меню #1
Продолжительность : 9 м. 27 с.
00:00:00.000 : Chapter 1
List (Audio) : 0
Меню #2
Продолжительность : 4 м. 23 с.
00:00:00.000 : Chapter 1
List (Audio) : 0
Меню #3
Общее
Полное имя : D:\ готовые\povarotti\VIDEO_TS\VTS_03_0.VOB
Формат : MPEG-PS
Размер файла : 8,00 Кбайт
Продолжительность : 33 мс.
Общий поток : 1986 Кбит/сек
Видео
Идентификатор : 224 (0xE0)
Формат : MPEG Video
Версия формата : Version 2
Профиль формата : Main@Main
Параметр BVOP формата : Нет
Параметр матрицы формата : По умолчанию
Продолжительность : 33 мс.
Вид битрейта : Постоянный
Битрейт : 8000 Кбит/сек
Ширина : 720 пикс.
Высота : 480 пикс.
Соотношение сторон : 4:3
Частота кадров : 29,970 кадр/сек
Стандарт вещания : NTSC
Цветовое пространство : YUV
Подвыборка цветности : 4:2:0
Битовая глубина : 8 бит
Тип развёртки : Прогрессивная
Порядок развёртки : Верхнее поле первое
Метод сжатия : С потерями
Бит/(Пиксели*Кадры) : 0.772
Размер потока : 32,2 Кбайт
Меню
Общее
Полное имя : D:\ готовые\povarotti\VIDEO_TS\VTS_03_1.VOB
Формат : MPEG-PS
Размер файла : 678 Мбайт
Продолжительность : 4 м. 23 с.
Общий поток : 21,6 Мбит/сек
Видео
Идентификатор : 224 (0xE0)
Формат : MPEG Video
Версия формата : Version 2
Профиль формата : Main@Main
Параметр BVOP формата : Да
Параметр матрицы формата : По умолчанию
Параметры GOP формата : M=3, N=16
Продолжительность : 4 м. 23 с.
Вид битрейта : Переменный
Битрейт : 19,6 Мбит/сек
Номинальный битрейт : 7200 Кбит/сек
Ширина : 720 пикс.
Высота : 480 пикс.
Соотношение сторон : 4:3
Частота кадров : 29,970 кадр/сек
Стандарт вещания : NTSC
Цветовое пространство : YUV
Подвыборка цветности : 4:2:0
Битовая глубина : 8 бит
Тип развёртки : Чересстрочная
Порядок развёртки : Верхнее поле первое
Метод сжатия : С потерями
Бит/(Пиксели*Кадры) : 1.893
Размер потока : 616 Мбайт (91%)
Аудио
Идентификатор : 189 (0xBD)-160 (0xA0)
Формат : PCM
Параметр Endianness формата : Big
Параметр Sign формата : Signed
Режим смешивания : DVD-Video
Продолжительность : 4 м. 23 с.
Вид битрейта : Постоянный
Битрейт : 1536 Кбит/сек
Канал(ы) : 2 канала(ов)
Расположение каналов : Front: L R
Частота : 48,0 КГц
Битовая глубина : 16 бит
Размер потока : 48,3 Мбайт (7%)
Меню
Общее
Полное имя : D:\ готовые\povarotti\VIDEO_TS\VTS_04_0.BUP
Формат : DVD Video
Профиль формата : Program
Размер файла : 20,0 Кбайт
Продолжительность : 5 м. 15 с.
Общий поток : 519 бит/сек
Видео
Идентификатор : 224 (0xE0)
Формат : MPEG Video
Версия формата : Version 2
Продолжительность : 5 м. 15 с.
Вид битрейта : Переменный
Ширина : 720 пикс.
Высота : 480 пикс.
Соотношение сторон : 4:3
Частота кадров : 29,970 кадр/сек
Стандарт вещания : NTSC
Метод сжатия : С потерями
Аудио
Идентификатор : 0 (0x0)
Формат : PCM
Продолжительность : 5 м. 15 с.
Канал(ы) : 2 канала(ов)
Частота : 48,0 КГц
Меню
Продолжительность : 5 м. 15 с.
00:00:00.000 : Chapter 1
List (Audio) : 0
Общее
Полное имя : D:\ готовые\povarotti\VIDEO_TS\VTS_04_0.IFO
Формат : DVD Video
Профиль формата : Program
Размер файла : 20,0 Кбайт
Продолжительность : 5 м. 15 с.
Общий поток : 519 бит/сек
Видео
Идентификатор : 224 (0xE0)
Формат : MPEG Video
Версия формата : Version 2
Продолжительность : 5 м. 15 с.
Вид битрейта : Переменный
Ширина : 720 пикс.
Высота : 480 пикс.
Соотношение сторон : 4:3
Частота кадров : 29,970 кадр/сек
Стандарт вещания : NTSC
Метод сжатия : С потерями
Аудио
Идентификатор : 0 (0x0)
Формат : PCM
Продолжительность : 5 м. 15 с.
Канал(ы) : 2 канала(ов)
Частота : 48,0 КГц
Меню
Продолжительность : 5 м. 15 с.
00:00:00.000 : Chapter 1
List (Audio) : 0
Общее
Полное имя : D:\ готовые\povarotti\VIDEO_TS\VTS_04_0.VOB
Формат : MPEG-PS
Размер файла : 8,00 Кбайт
Продолжительность : 33 мс.
Общий поток : 1986 Кбит/сек
Видео
Идентификатор : 224 (0xE0)
Формат : MPEG Video
Версия формата : Version 2
Профиль формата : Main@Main
Параметр BVOP формата : Нет
Параметр матрицы формата : По умолчанию
Продолжительность : 33 мс.
Вид битрейта : Постоянный
Битрейт : 8000 Кбит/сек
Ширина : 720 пикс.
Высота : 480 пикс.
Соотношение сторон : 4:3
Частота кадров : 29,970 кадр/сек
Стандарт вещания : NTSC
Цветовое пространство : YUV
Подвыборка цветности : 4:2:0
Битовая глубина : 8 бит
Тип развёртки : Прогрессивная
Порядок развёртки : Верхнее поле первое
Метод сжатия : С потерями
Бит/(Пиксели*Кадры) : 0.772
Размер потока : 32,2 Кбайт
Меню
Общее
Полное имя : D:\ готовые\povarotti\VIDEO_TS\VTS_04_1.VOB
Формат : MPEG-PS
Размер файла : 335 Мбайт
Продолжительность : 5 м. 15 с.
Общий поток : 8899 Кбит/сек
Видео
Идентификатор : 224 (0xE0)
Формат : MPEG Video
Версия формата : Version 2
Профиль формата : Main@Main
Параметр BVOP формата : Да
Параметр матрицы формата : По умолчанию
Продолжительность : 5 м. 15 с.
Вид битрейта : Постоянный
Битрейт : 7200 Кбит/сек
Ширина : 720 пикс.
Высота : 480 пикс.
Соотношение сторон : 4:3
Частота кадров : 29,970 кадр/сек
Стандарт вещания : NTSC
Цветовое пространство : YUV
Подвыборка цветности : 4:2:0
Битовая глубина : 8 бит
Тип развёртки : Чересстрочная
Порядок развёртки : Нижнее поле первое
Метод сжатия : С потерями
Бит/(Пиксели*Кадры) : 0.695
Размер потока : 270 Мбайт (81%)
Аудио
Идентификатор : 189 (0xBD)-160 (0xA0)
Формат : PCM
Параметр Endianness формата : Big
Параметр Sign формата : Signed
Режим смешивания : DVD-Video
Продолжительность : 5 м. 15 с.
Вид битрейта : Постоянный
Битрейт : 1536 Кбит/сек
Канал(ы) : 2 канала(ов)
Расположение каналов : Front: L R
Частота : 48,0 КГц
Битовая глубина : 16 бит
Размер потока : 57,7 Мбайт (17%)
Меню
Общее
Полное имя : D:\ готовые\povarotti\VIDEO_TS\VTS_05_0.BUP
Формат : DVD Video
Профиль формата : Program
Размер файла : 26,0 Кбайт
Продолжительность : 12 м.
Общий поток : 273 бит/сек
Видео
Идентификатор : 224 (0xE0)
Формат : MPEG Video
Версия формата : Version 2
Продолжительность : 12 м.
Вид битрейта : Переменный
Ширина : 720 пикс.
Высота : 480 пикс.
Соотношение сторон : 16:9
Частота кадров : 29,970 кадр/сек
Стандарт вещания : NTSC
Метод сжатия : С потерями
Аудио
Идентификатор : 0 (0x0)
Формат : PCM
Продолжительность : 12 м.
Канал(ы) : 2 канала(ов)
Частота : 48,0 КГц
Меню
Продолжительность : 12 м.
00:00:00.000 : Chapter 1
List (Audio) : 0
Общее
Полное имя : D:\ готовые\povarotti\VIDEO_TS\VTS_05_0.IFO
Формат : DVD Video
Профиль формата : Program
Размер файла : 26,0 Кбайт
Продолжительность : 12 м.
Общий поток : 273 бит/сек
Видео
Идентификатор : 224 (0xE0)
Формат : MPEG Video
Версия формата : Version 2
Продолжительность : 12 м.
Вид битрейта : Переменный
Ширина : 720 пикс.
Высота : 480 пикс.
Соотношение сторон : 16:9
Частота кадров : 29,970 кадр/сек
Стандарт вещания : NTSC
Метод сжатия : С потерями
Аудио
Идентификатор : 0 (0x0)
Формат : PCM
Продолжительность : 12 м.
Канал(ы) : 2 канала(ов)
Частота : 48,0 КГц
Меню
Продолжительность : 12 м.
00:00:00.000 : Chapter 1
List (Audio) : 0
Общее
Полное имя : D:\ готовые\povarotti\VIDEO_TS\VTS_05_0.VOB
Формат : MPEG-PS
Размер файла : 8,00 Кбайт
Продолжительность : 33 мс.
Общий поток : 1986 Кбит/сек
Видео
Идентификатор : 224 (0xE0)
Формат : MPEG Video
Версия формата : Version 2
Профиль формата : Main@Main
Параметр BVOP формата : Нет
Параметр матрицы формата : По умолчанию
Продолжительность : 33 мс.
Вид битрейта : Постоянный
Битрейт : 8000 Кбит/сек
Ширина : 720 пикс.
Высота : 480 пикс.
Соотношение сторон : 4:3
Частота кадров : 29,970 кадр/сек
Стандарт вещания : NTSC
Цветовое пространство : YUV
Подвыборка цветности : 4:2:0
Битовая глубина : 8 бит
Тип развёртки : Прогрессивная
Порядок развёртки : Верхнее поле первое
Метод сжатия : С потерями
Бит/(Пиксели*Кадры) : 0.772
Размер потока : 32,2 Кбайт
Меню
Общее
Полное имя : D:\ готовые\povarotti\VIDEO_TS\VTS_05_1.VOB
Формат : MPEG-PS
Размер файла : 526 Мбайт
Продолжительность : 12 м.
Общий поток : 5667 Кбит/сек
Видео
Идентификатор : 224 (0xE0)
Формат : MPEG Video
Версия формата : Version 2
Профиль формата : Main@Main
Параметр BVOP формата : Да
Параметр матрицы формата : По умолчанию
Продолжительность : 12 м.
Вид битрейта : Переменный
Битрейт : 4019 Кбит/сек
Номинальный битрейт : 9800 Кбит/сек
Ширина : 720 пикс.
Высота : 480 пикс.
Соотношение сторон : 16:9
Частота кадров : 29,970 кадр/сек
Стандарт вещания : NTSC
Цветовое пространство : YUV
Подвыборка цветности : 4:2:0
Битовая глубина : 8 бит
Тип развёртки : Чересстрочная
Порядок развёртки : Нижнее поле первое
Метод сжатия : С потерями
Бит/(Пиксели*Кадры) : 0.388
Размер потока : 373 Мбайт (71%)
Аудио
Идентификатор : 189 (0xBD)-160 (0xA0)
Формат : PCM
Параметр Endianness формата : Big
Параметр Sign формата : Signed
Режим смешивания : DVD-Video
Продолжительность : 12 м.
Вид битрейта : Постоянный
Битрейт : 1536 Кбит/сек
Канал(ы) : 2 канала(ов)
Расположение каналов : Front: L R
Частота : 48,0 КГц
Битовая глубина : 16 бит
Размер потока : 143 Мбайт (27%)
Меню
Общее
Полное имя : D:\ готовые\povarotti\VIDEO_TS\VTS_06_0.BUP
Формат : DVD Video
Профиль формата : Program
Размер файла : 20,0 Кбайт
Продолжительность : 6 м. 12 с.
Общий поток : 439 бит/сек
Видео
Идентификатор : 224 (0xE0)
Формат : MPEG Video
Версия формата : Version 2
Продолжительность : 6 м. 12 с.
Вид битрейта : Переменный
Ширина : 720 пикс.
Высота : 480 пикс.
Соотношение сторон : 4:3
Частота кадров : 29,970 кадр/сек
Стандарт вещания : NTSC
Метод сжатия : С потерями
Аудио
Идентификатор : 0 (0x0)
Формат : PCM
Продолжительность : 6 м. 12 с.
Канал(ы) : 2 канала(ов)
Частота : 48,0 КГц
Меню
Продолжительность : 6 м. 12 с.
00:00:00.000 : Chapter 1
List (Audio) : 0
Общее
Полное имя : D:\ готовые\povarotti\VIDEO_TS\VTS_06_0.IFO
Формат : DVD Video
Профиль формата : Program
Размер файла : 20,0 Кбайт
Продолжительность : 6 м. 12 с.
Общий поток : 439 бит/сек
Видео
Идентификатор : 224 (0xE0)
Формат : MPEG Video
Версия формата : Version 2
Продолжительность : 6 м. 12 с.
Вид битрейта : Переменный
Ширина : 720 пикс.
Высота : 480 пикс.
Соотношение сторон : 4:3
Частота кадров : 29,970 кадр/сек
Стандарт вещания : NTSC
Метод сжатия : С потерями
Аудио
Идентификатор : 0 (0x0)
Формат : PCM
Продолжительность : 6 м. 12 с.
Канал(ы) : 2 канала(ов)
Частота : 48,0 КГц
Меню
Продолжительность : 6 м. 12 с.
00:00:00.000 : Chapter 1
List (Audio) : 0
Общее
Полное имя : D:\ готовые\povarotti\VIDEO_TS\VTS_06_0.VOB
Формат : MPEG-PS
Размер файла : 8,00 Кбайт
Продолжительность : 33 мс.
Общий поток : 1986 Кбит/сек
Видео
Идентификатор : 224 (0xE0)
Формат : MPEG Video
Версия формата : Version 2
Профиль формата : Main@Main
Параметр BVOP формата : Нет
Параметр матрицы формата : По умолчанию
Продолжительность : 33 мс.
Вид битрейта : Постоянный
Битрейт : 8000 Кбит/сек
Ширина : 720 пикс.
Высота : 480 пикс.
Соотношение сторон : 4:3
Частота кадров : 29,970 кадр/сек
Стандарт вещания : NTSC
Цветовое пространство : YUV
Подвыборка цветности : 4:2:0
Битовая глубина : 8 бит
Тип развёртки : Прогрессивная
Порядок развёртки : Верхнее поле первое
Метод сжатия : С потерями
Бит/(Пиксели*Кадры) : 0.772
Размер потока : 32,2 Кбайт
Меню
Общее
Полное имя : D:\ готовые\povarotti\VIDEO_TS\VTS_06_1.VOB
Формат : MPEG-PS
Размер файла : 342 Мбайт
Продолжительность : 6 м. 12 с.
Общий поток : 7689 Кбит/сек
Видео
Идентификатор : 224 (0xE0)
Формат : MPEG Video
Версия формата : Version 2
Профиль формата : Main@Main
Параметр BVOP формата : Да
Параметр матрицы формата : По умолчанию
Продолжительность : 6 м. 12 с.
Вид битрейта : Переменный
Битрейт : 6000 Кбит/сек
Номинальный битрейт : 9800 Кбит/сек
Ширина : 720 пикс.
Высота : 480 пикс.
Соотношение сторон : 4:3
Частота кадров : 29,970 кадр/сек
Стандарт вещания : NTSC
Цветовое пространство : YUV
Подвыборка цветности : 4:2:0
Битовая глубина : 8 бит
Тип развёртки : Чересстрочная
Порядок развёртки : Нижнее поле первое
Метод сжатия : С потерями
Бит/(Пиксели*Кадры) : 0.579
Размер потока : 267 Мбайт (78%)
Аудио
Идентификатор : 189 (0xBD)-160 (0xA0)
Формат : PCM
Параметр Endianness формата : Big
Параметр Sign формата : Signed
Режим смешивания : DVD-Video
Продолжительность : 6 м. 12 с.
Вид битрейта : Постоянный
Битрейт : 1536 Кбит/сек
Канал(ы) : 2 канала(ов)
Расположение каналов : Front: L R
Частота : 48,0 КГц
Битовая глубина : 16 бит
Размер потока : 68,3 Мбайт (20%)

Nugeiro

Пост 02-Янв-2012 11:55

[Цитировать]

Ээхх, разгуляй! - 2011
Год выпуска: 2011
Страна: Россия
Жанр: Концерт
Продолжительность: 02:18:43
Описание: «Ээхх, Разгуляй!» — не просто шоу, а настоящий музыкальный марафон: грандиозное действо, сделанное по последнему слову техники со спецэффектами, видеоинсталляциями, номерами танцоров и акробатов, полное юмора и музыкальных сюрпризов. В этом году перед зрителями выступят самые яркие исполнители жанра шансон, а песенный репертуар состоит сплошь из хитов. В концерте примут участие Сергей Трофимов, Михаил Шуфутинский, Вилли Токарев, Любовь Успенская, группа «Лесоповал», Владислав Медяник, Катерина Голицына, Ирина Круг, Олег Газманов, Александр Маршал, Стас Михайлов и многие другие.
Качество: SATRip
Формат: AVI
Видео кодек: XviD
Аудио кодек: MP3
Видео: XviD, 1693 Кбит/с, 704x384
Аудио: MP3, 2 ch, 192 Кбит/с

Скриншоты

     

BiteFly

Пост 18-Дек-2011 12:27

[Цитировать]

Schiller - Atemlos Live- Жанр: Electronic, Ambient
Продолжительность: 02:23:21
Год выпуска: 2010-Описание:
Концерт в Гамбурге O2-World Arena 24.05.2010-Треклист:
01. playing with madness | instrumental
02. soho
03. tiefblau
04. blind | with anggun
05. innocent lies | with anggun
06. ruhe
07. la mer
08. under my skin | with kim sanders
09. let me love you | with kim sanders
10. polarstern
11. schiller
12. don't go | with kate havnevik
13. the fire | with kate havnevik
14. salton sea
15. delicately yours | with kim sanders
16. irrlicht
17. himmelblau
18. das glockenspiel
19. always you | with anggun
20. reprise part 1
21. reprise part 2
22. ein schoener tag
23. sehnsucht
24. let it rise | with midge ure
25. playing with madness | with mia bergström
26. sommernacht
-Качество: BDRip
Контейнер: MKV
Видео кодек: H.264
Аудио кодек: DTS, FLAC
Видео: 1280x720 (16:9), 5160 Kbps, 25 fps
Аудио #1: DTS, 1510 Kbps, 48 KHz, 24 bits, 5.1 ch
Аудио #2: FLAC, 1603 kbps, 48 kHz, 24 bits, 2 ch
-

x264 log

---[NoImage] yuv [info]: 1280x720p 1:1 @ 25/1 fps (cfr)
---[NoImage] x264 [info]: using SAR=1/1
---[NoImage] x264 [info]: using cpu capabilities: MMX2 SSE2Fast SSSE3 FastShuffle SSE4.2
---[NoImage] x264 [info]: profile High, level 4.1
---[NoImage]
---[NoImage] x264 [info]: frame I:1513 Avg QP:14.36 size: 93432
---[NoImage] x264 [info]: frame P:46870 Avg QP:15.44 size: 46308
---[NoImage] x264 [info]: frame B:166649 Avg QP:17.36 size: 19370
---[NoImage] x264 [info]: consecutive B-frames: 1.7% 2.2% 8.1% 16.9% 21.8% 39.3% 6.2% 1.4% 1.5% 0.9%
---[NoImage] x264 [info]: mb I I16..4: 27.2% 59.4% 13.4%
---[NoImage] x264 [info]: mb P I16..4: 14.6% 17.4% 2.2% P16..4: 31.2% 17.8% 8.9% 0.0% 0.0% skip: 7.9%
---[NoImage] x264 [info]: mb B I16..4: 0.4% 1.2% 0.1% B16..8: 31.8% 9.4% 2.1% direct:22.3% skip:32.7% L0:42.9% L1:46.7% BI:10.4%
---[NoImage] x264 [info]: 8x8 transform intra:54.6% inter:58.0%
---[NoImage] x264 [info]: direct mvs spatial:91.4% temporal:8.6%
---[NoImage] x264 [info]: coded y,uvDC,uvAC intra: 55.8% 77.5% 54.1% inter: 26.4% 41.1% 9.3%
---[NoImage] x264 [info]: i16 v,h,dc,p: 82% 5% 5% 8%
---[NoImage] x264 [info]: i8 v,h,dc,ddl,ddr,vr,hd,vl,hu: 7% 5% 13% 12% 14% 13% 12% 12% 12%
---[NoImage] x264 [info]: i4 v,h,dc,ddl,ddr,vr,hd,vl,hu: 7% 6% 8% 12% 15% 13% 12% 12% 15%
---[NoImage] x264 [info]: i8c dc,h,v,p: 41% 26% 18% 15%
---[NoImage] x264 [info]: Weighted P-Frames: Y:26.4%
---[NoImage] x264 [info]: ref P L0: 45.2% 6.4% 19.1% 9.2% 6.4% 5.0% 4.2% 3.1% 1.0% 0.2%
---[NoImage] x264 [info]: ref B L0: 69.2% 14.4% 7.3% 3.9% 2.9% 1.6% 0.6%
---[NoImage] x264 [info]: ref B L1: 90.7% 9.3%
---[NoImage] x264 [info]: kb/s:5152.51

MediaInfo

Код:
General
Complete name                    : C:\Schiller.Atemlos Live.BDRip.720p.mkv
Format                           : Matroska
File size                        : 8.24 GiB
Duration                         : 2h 23mn
Overall bit rate                 : 8 230 Kbps
Encoded date                     : UTC 2010-12-10 23:17:04
Writing application              : mkvmerge v4.4.0 ('Die Wiederkehr') сборка от Oct 31 2010 21:52:48
Writing library                  : libebml v1.0.0 + libmatroska v1.0.0
Video
ID                               : 1
Format                           : AVC
Format/Info                      : Advanced Video Codec
Format profile                   : High@L4.1
Format settings, CABAC           : Yes
Format settings, ReFrames        : 8 frames
Codec ID                         : V_MPEG4/ISO/AVC
Duration                         : 2h 23mn
Nominal bit rate                 : 5 160 Kbps
Width                            : 1 280 pixels
Height                           : 720 pixels
Display aspect ratio             : 16:9
Frame rate                       : 25.000 fps
Color space                      : YUV
Chroma subsampling               : 4:2:0
Bit depth                        : 8 bits
Scan type                        : Progressive
Bits/(Pixel*Frame)               : 0.224
Writing library                  : x264 core 98 r1649 20cbe10
Encoding settings                : cabac=1 / ref=8 / deblock=1:-3:-3 / analyse=0x3:0x113 / me=umh / subme=10 / psy=1 / psy_rd=1.00:0.00 / mixed_ref=1 / me_range=32 / chroma_me=1 / trellis=2 / 8x8dct=1 / cqm=0 / deadzone=21,11 / fast_pskip=0 / chroma_qp_offset=-2 / threads=12 / sliced_threads=0 / nr=0 / decimate=1 / interlaced=0 / constrained_intra=0 / bframes=9 / b_pyramid=2 / b_adapt=2 / b_bias=0 / direct=3 / weightb=1 / weightp=2 / keyint=250 / keyint_min=25 / scenecut=40 / intra_refresh=0 / rc=2pass / mbtree=0 / bitrate=5160 / ratetol=1.0 / qcomp=0.60 / qpmin=10 / qpmax=51 / qpstep=4 / cplxblur=20.0 / qblur=0.5 / ip_ratio=1.40 / pb_ratio=1.30 / aq=1:1.00
Language                         : English
Audio #1
ID                               : 2
Format                           : FLAC
Format/Info                      : Free Lossless Audio Codec
Codec ID                         : A_FLAC
Duration                         : 2h 23mn
Bit rate mode                    : Variable
Channel(s)                       : 2 channels
Sampling rate                    : 48.0 KHz
Bit depth                        : 24 bits
Title                            : FLAC 2.0 / 48 kHz / 1603 kbps / 24-bit
Writing library                  : libFLAC 1.2.1 (UTC 2007-09-17)
Language                         : English
Audio #2
ID                               : 3
Format                           : DTS
Format/Info                      : Digital Theater Systems
Codec ID                         : A_DTS
Duration                         : 2h 23mn
Bit rate mode                    : Constant
Bit rate                         : 1 510 Kbps
Channel(s)                       : 6 channels
Channel positions                : Front: L C R, Side: L R, LFE
Sampling rate                    : 48.0 KHz
Bit depth                        : 24 bits
Stream size                      : 1.51 GiB (18%)
Title                            : DTS 5.1 / 48 kHz / 1509 kbps / 24-bit
Language                         : English
Menu
00:00:00.000                     : en:Playing with Madness
00:05:29.480                     : en:Soho
00:11:07.000                     : en:Tiefblau
00:16:55.160                     : en:Blind
00:22:26.000                     : en:Innocent Lies
00:26:24.000                     : en:Ruhe
00:30:39.840                     : en:La Mer
00:34:58.720                     : en:Under My Skin
00:40:06.600                     : en:Let Me Love You
00:48:10.000                     : en:Polarstern
00:52:50.640                     : en:Schiller
01:00:10.640                     : en:Don’t Go
01:05:51.640                     : en:The Fire
01:11:58.840                     : en:Salton Sea
01:17:10.480                     : en:Delicately Yours
01:22:20.120                     : en:Irrlicht
01:28:01.400                     : en:Himmelblau
01:34:02.320                     : en:Das Glockenspiel
01:40:04.000                     : en:Always You
01:44:42.000                     : en:Reprise – Teil 1
01:47:59.240                     : en:Reprise – Teil 2
01:50:15.920                     : en:Ein schoner Tag
01:57:54.160                     : en:Sehnsucht
02:02:55.240                     : en:Let It Rise
02:07:25.320                     : en:Playing With Madness
02:11:59.520                     : en:Sommernacht
02:17:00.760                     : en:Ovation
02:19:50.000                     : en:Credits
-          -

Koralina

Пост 09-Дек-2011 11:55

[Цитировать]

Sade - Second concert in Moscow (08.11.2011) Жанр: Smoot Jazz, Soul, Funk, Soft Rock
Продолжительность: 02:02:51
Год выпуска: 2011
Описание: Незабываемый концерт Sade в Москве.
Sade Adu – vocals, lyricist, songwriter
Stuart Colin Matthewman – guitar, sax, songwriter
Paul Spencer Denman – bass, songwriter
Andrew Hale – keyboards, songwriter
Лирой Озборн - бэк-вокал, акустическая гитара
Тони Морэл - бэк-вокал
Питер Льюинсон - ударные
Карл Ван Ден Бош - перкусия
Райан Уотерс - лид-гитара
Tracklist
01 - Soldier Of Love
02 - Your Love Is King
03 - Skin
04 - Kiss Of Life
05 - Love Is Found
06 - In Another Time
07 - Smooth Operator
08 - Jezebel
09 - Bring Me Home
10 - Is It A Crime
11 - Love Is Stronger Than Pride
12 - All About Our Love
13 - Paradise
14 - Nothing Can Come Between Us
15 - Morning Bird
16 - King Of Sorrow
17 - Sweetest Taboo
18 - Moon And The Sky
19 - Pearls
20 - No Ordinary Love
21 - By Your Side
Бис
22 - Cherish The Day
Качество: HDCamRip
Контейнер: WMV
Видео кодек: WMVx
Аудио кодек: WMA
Видео: Windows Media Video 9, WMV3, 640x360, 16:9, 5 051 kbps, 25.000 fps
Аудио: WMA2, 192 kbps, 44 kHz, stereo

BiteFly

Пост 03-Дек-2011 02:51

[Цитировать]

Высоцкий. Последний концерт- Страна: Россия
Жанр: Биографический фильм, Музыкальный фильм
Продолжительность: 00:51:05
Год выпуска: 2011 г.
Режиссер: Ксения Маринина
Описание:
Последний концерт Владимира Высоцкого. И единственный, снятый центральным телевидением.
Советское телевидение никогда не жаловало Высоцкого. Ситуация радикальным образом изменилась только после 1987 года, когда ему посмертно была присуждена Государственная премия СССР. Лишь после этого советские телевизионные начальники позволили себе признать, что Высоцкий писал хорошие стихи и был выдающимся актёром. Увы, было уже поздно...
Не существует ни одной полной видеозаписи спектаклей с участием Владимира Семеновича, ни одного полного сольного концерта. 30 лет тому назад сама идея трансляции песен Высоцкого по советскому телевидению выглядела утопией. На Центральное телевидение Высоцкий был приглашён лишь однажды, в январе 1980 года. На запись Владимира Семеновича пригласила многолетний режиссёр "Кинопанорамы" Ксения Маринина.
22 января 1980 года состоялась запись Высоцкого в Останкино. Политическая ситуация однако была такова, что пустить в эфир этот концерт было нереально. Решили сделать ещё одну запись – с участием режиссёра фильма "Место встречи изменить нельзя" Станислава Говорухина и исполнителем роли Шарапова Владимира Конкина. Только в этом контексте был шанс "протащить" песни Высоцкого на телеэкран. Однако эта программа все равно легла на полку. Прошло долгих семь лет, прежде чем отрывок из этого концерта впервые вышел в эфир "Кинопанорамы".
Телезрители Первого канала увидят последний концерт и монолог Владимира Высоцкого в полном и отреставрированном виде.
Кстати, создатели фильма "Высоцкий. Спасибо, что живой" воссоздавали лицо Владимира Семеновича с помощью сложнейшего грима именно по этой записи. Ведь это был последний и единственный его концерт, который был снят на пленку.
-

Треклист:

01. Вступление. Песни из фильма "Вертикаль"
02. Мы вращаем Землю
03. Почему аборигены съели Кука, или Одна научная загадка
04. Я не люблю...
05. Пожары
06. Утренняя гимнастика
07. Песенка ни про что, или Что случилось в Африке
08. Письмо в редакцию телепередачи "Очевидное - невероятное"
09. Песня о Земле
10. Баллада о Любви
-Сэмпл-Релиз от: & -Источник: собственный рип
Качество: SATRemux
Контейнер: MPG
Видео кодек: MPEG2
Аудио кодек: MPEG1
Видео: MPEG2, 704x576, 25.000 fps, 3288-3550 kbit/s
Аудио: MPEG1 - Layer 2, 48.0 kHz, 2 chn, 192.0 kbit/s

Скриншоты

       
       
   

Koralina

Пост 25-Ноя-2011 12:26

[Цитировать]

Depeche Mode - Devotional Коллекционное издание - Devotional Tour 1993 Оригинальное название: Depeche Mode - Devotional Коллекционное издание - Devotional Tour 1993
Страна: Britain
Жанр: Synthpop / New Wave
Дата выхода: 1993
Продолжительность: 03:26:00

Описание

[font=Georgia1][size=150]Потрясающее шоу. Концертные съемки произведены в ходе европейского турне в 1993 году в Барселоне. Рекомендуется для просмотра даже тем, кто не является поклонником группы. Depeche Mode впервые на DVD выпускает их нашумевший фильм-концерт Devotional, записанный в ходе суперуспешного мирового турне 1993 г. Снятый ведущим фотографом и режиссером, давним соратником Depeche Mode Антоном Корбийном, этот впечатляющий и потрясающий в визуальном плане фильм отлично передает сущность одной из самых передовых и новаторских Английских групп на пике ее популярности. Выпущенный в свет в 1993 году Devotional был выдвинут на премию Grammy в номинации "Лучшее полнометражное музыкальное видео".
Концерт включает классические вещи Depeche Mode - Personal Jesus, Walking In My Shoes, Enjoy The Silence и Never Let Me Down Again, а также эксклюзивные бонус-треки Halo и Policy of Truth.
Devotional - это великолепно снятый фильм, показывающий одно из самых щедрых и претенциозных шоу, когда-либо представленных группой. Благодаря эпическому и новаторскому дизайну сцены и уникальным видеоэффектам, созданным Антоном Корбийном, Devotional - это нечто большее, чем просто концертный DVD - это путешествие, которое никогда не забудется.

Содержимое раздачи

In 1993 Depeche Mode was Andy Fletcher, Dave Gahan, Martin Gore, Alan Wilder
Filmed during the 1993 European Devotional Tour in Barcelona and Frankfurt

Disc One:
Devotional 94mins
A performance filmed by Anton Corbijn

1 Higher Love
2 World In My Eyes
3 Walking In My Shoes
4 Behind The Wheel
5 Stripped
6 Condemnation
7 Judas
8 Mercy In You
9 I Feel You
10 Never Let Me Down Again
11 Rush
12 In Your Room
13 Personal Jesus
14 Enjoy The Silence
15 Fly On The Windscreen
16 Everything Counts
Audio Options: 5.1 & PCM Stereo

Bonus tracks from the Devotional performance
1 Halo
2 Policy Of Truth

Audio Options: 5.1 & PCM Stereo
-------------------------------
Disc Two:
Devotional live projections
1 Walking In My Shoes
2 Stripped
3 Condemnation
4 Judas
5 I Feel You
6 Never Let Me Down Again
7 In Your Room
8 Enjoy The Silence

Audio Options: 5.1 & PCM Stereo
Promotional videos
1 I Feel You
2 Walking In My Shoes
3 Condemnation (Paris Mix)
4 In Your Room
5 One Caress (US Video)
6 Condemnation (Live)

Audio: PCM Stereo

MTV Documentary
"Depeche Mode Rockumentary"
Audio: Dolby 2.0 Stereo

Monologue by Anton Corbijn
Audio: PCM Stereo
Devotional Tour Programmes
---------------------------------
Devotional performance and bonus tracks
Directed by Anton Corbijn Produced by Richard Bell Edited by Graham Brennan
except bonus tracks edited by James Rose, assistant editor: David Price
Sound production and mix by Alan Wilder and Steve Lyon
Devotional live projections Directed by Anton Corbijn Produced by Richard Bell
Promotional videos
Directed by Anton Corbijn except
One Caress (US Video) directed by Kevin Kerslake
MTV Documentary "Depeche Mode Rockumentary"
Directed by Nicholas Wickham
Produced by Sara Martin
An MTV Europe Production © 1993 MTV Networks Europe
Licensed courtesy of MTV Networks Europe
Monologue by Anton Corbijn
Camera operator, sound recordist and editor: James Rose
Total Running Time:
approx 3 hours 26 min
2 discs 2 x DVD 9
Subtitles available in the following
languages: English. French, German,
Italian, and Spanish.

MediaInfo

Disc1
Title: New Volume
Size: 6.39 Gb ( 6 703 590 KBytes ) - DVD-9
Enabled regions: 1, 2, 3, 4, 5, 6, 7, 8
VTS_01 :
Play Length: 00:00:05
Video: NTSC 4:3 (720x480) VBR
VTS_02 :
Play Length: 00:00:05
Video: NTSC 4:3 (720x480) VBR
VTS_03 :
Play Length: 00:00:22
Video: NTSC 4:3 (720x480) VBR
VTS_04 :
Play Length: 01:33:54
Video: NTSC 4:3 (720x480) VBR
Audio:
English (Dolby AC3, 6 ch)
English (LinearPCM, 2 ch)
VTS_05 :
Play Length: 00:04:42
Video: NTSC 4:3 (720x480) VBR
Audio:
English (Dolby AC3, 6 ch)
English (LinearPCM, 2 ch)
VTS_06 :
Play Length: 00:05:07
Video: NTSC 4:3 (720x480) VBR
Audio:
English (Dolby AC3, 6 ch)
English (LinearPCM, 2 ch)
VTS_07 :
Play Length: 00:00:01
Video: NTSC 4:3 (720x480) VBR
Menu Video:
NTSC 4:3 (720x480) VBR
Menu Subtitles:
Not specified
Menu English Language Unit :
Root Menu

MediaInfo

Disc2
Title: New Volume
Size: 5.65 Gb ( 5 927 600 KBytes ) - DVD-9
Enabled regions: 1, 2, 3, 4, 5, 6, 7, 8
VTS_01 :
Play Length: 00:00:05
Video: NTSC 4:3 (720x480) VBR
VTS_02 :
Play Length: 00:00:05
Video: NTSC 4:3 (720x480) VBR
VTS_03 :
Play Length: 00:00:22
Video: NTSC 4:3 (720x480) VBR
VTS_04 :
Play Length: 00:00:01
Video: NTSC 4:3 (720x480) VBR
VTS_05 :
Play Length: 00:47:53
Video: NTSC 4:3 (720x480) VBR
Audio:
English (Dolby AC3, 6 ch)
English (LinearPCM, 2 ch)
VTS_06 :
Play Length: 00:22:10
Video: NTSC 4:3 (720x480) VBR
Audio:
English (Dolby AC3, 2 ch)
Subtitles:
English
Espanol
Portugues
Japanese
VTS_07 :
Play Length: 00:08:21
Video: NTSC 4:3 (720x480) VBR
Audio:
English (Dolby AC3, 2 ch)
Subtitles:
English
Espanol
Portugues
Japanese
VTS_08 :
Play Length: 00:04:49
Video: NTSC 4:3 (720x480) VBR
Audio:
English (LinearPCM, 2 ch)
VTS_09 :
Play Length: 00:04:31
Video: NTSC 4:3 (720x480) VBR
Audio:
English (LinearPCM, 2 ch)
VTS_10 :
Play Length: 00:04:58
Video: NTSC 4:3 (720x480) VBR
Audio:
English (LinearPCM, 2 ch)
VTS_11 :
Play Length: 00:03:14
Video: NTSC 4:3 (720x480) VBR
Audio:
English (LinearPCM, 2 ch)
VTS_12 :
Play Length: 00:03:56
Video: NTSC 4:3 (720x480) VBR
Audio:
English (LinearPCM, 2 ch)
VTS_13 :
Play Length: 00:03:37
Video: NTSC 4:3 (720x480) VBR
Audio:
English (LinearPCM, 2 ch)
Menu Video:
NTSC 4:3 (720x480) VBR
Menu Subtitles:
Not specified
Menu English Language Unit :
Root Menu

Скриншоты

   
                             

Скриншоты

                   
Режиссер: Антон Корбийн
Актеры: Дэйв Гаан, Мартин Гор, Эндрю Флетчер, Алан Уайлдер
Качество: DVD9
Формат видео: 2хDVD9, DVD Video, MPEG2, DVD-Video
Формат аудио: AC-3
Видео: 720x480 (4/3), 29,970 кадр/сек, MPEG Video (NTSC) (Version 2), 0,772 bit/pixel
Аудио: 48 kHz, AC-3 Front:LCR Rear:LR LFE, 448 Кбит/сек
I love Depache Mode!!!

Dracula

Пост 21-Ноя-2011 17:40

[Цитировать]

Топик был перенесен из форума Concert Recording & Musical films (Documentary) в форум Музыка других жанров

zhuk.m

zhuk.m

Пост 21-Ноя-2011 09:10

[Цитировать]

Rodrigo y Gabriela Live Concert 2009
Год выпуска: 2009
Страна: Бельгия
Жанр: Acoustic / Flamenco / Classical Guitar
Продолжительность: 1 ч. 42 м.
Описание: Видеозапись прямой трансляция концерта. Записана 21-11-2009 в Ancienne Belgigue в Брюсселе (Бельгия).
102 минуты хорошей живой акустической гитарной музыки великолепного гитарного дуэта Rodrigo y Gabriela (Мексика).
Если вы не можете воспроизвести файл - найдите, скачайте и установите FLV-плеер в сети.
Их много и это бесплатно.
Домашняя страница:
Здесь ещё много хорошей музыки на видео.
Приятного просмотра ...-

Отчёт MediaInfo:

Общее:
Полное имя: Rodrigo y Gabriela Live Concert 2009.flv
Формат: Flash Video
Размер файла: 380 Мбайт
Продолжительность: 1 ч. 42 м.
Общий поток: 519 Кбит/сек
_code: NetStream.Data.Start / NetStream.Play.Complete
_level: status
Видео:
Формат: AVC
Формат/Информация: Advanced Video Codec
Профиль формата: Main@L2.1
Параметр CABAC формата: Да
Параметр ReFrames формата: 1 кадр
Идентификатор кодека: 7
Продолжительность: 1 ч. 42 м.
Ширина: 560 пикселей
Высота: 304 пикселя
Соотношение сторон: 16:9
Режим частоты кадров: Постоянный
Частота кадров: 25,000 кадров/сек
Цветовое пространство: YUV
Субдискретизация насыщенности: 4:2:0
Битовая глубина: 8 бит
Тип развёртки: Прогрессивная
Аудио:
Формат: AAC
Формат/Информация: Advanced Audio Codec
Профиль формата: HE-AAC / LC
Идентификатор кодека: 10
Продолжительность: 1 ч. 42 м.
Каналы: 2 канала
Расположение каналов: Front: L R
Частота: 48,0 КГц / 24,0 КГц
Метод сжатия: С потерями
Качество: DVDRip
Формат: Flash Video
Видео кодек: Advanced Video Codec
Аудио кодек: AAC
Видео: 560х304, 16:9, 25,000 кадров/сек
Аудио: 48,0 КГц / 24,0 КГц, 2 канала.

Скриншоты

 
           
-раздача ведется круглосуточно
 

Текущее время: Сегодня 18:38

Часовой пояс: GMT + 3