Сегодня идет свободное скачивание без начисления Download

Результатов поиска: 2

Автор Сообщение

vit0149

Пост 04-Дек-2011 16:10

[Цитировать]

Спасибо

Varius

Пост 01-Мар-2011 22:35

[Цитировать]

Кипелов - Дискография (1997; 2002-2009)- Год: 1997; 2002-2009
Жанр: Heavy Metal
Продолжительность: 12 CD
Кодек: FLAC
Тип рипа: image+.cue
Битрейт: Lossless
Треклист:

1997 - Кипелов & Маврин - Смутное время

Типа альбома: Studio
Год первого издания диска: 1997
Продолжительность: 01:00:44
Трэклист:
01. Путь Наверх (7:13)
02. Выпьем Еще (5:50)
03. Вот И Все Дела! (6:06)
04. Я Свободен! (7:26)
05. Смутное Время (6:44)
06. unspecified break (0:10)
07. Свет Дневной Иссяк... (6:04)
08. Castlevania (6:06)
09. Ночь В Июле (7:16)
10. Будем Жить, Мать Россия! (7:01)
11. Кода (0:47)
Год издания данного диска: 1997
Страна-производитель диска: Россия
Лейбл: Moroz Records
Сигнатура: MR 97210 CD

2003 - Путь наверх (2 CD)

Типа альбома: Live
Год первого издания диска: 2003
Продолжительность: 00:52:08+01:02:12
Трэклист:
Диск 1
01. Путь наверх (8:18)
02. Я не сошел с ума (6:18)
03. Грязь (4:33)
04. Бесы (3:43)
05. Дьявольский зной (5:20)
06. Castlevania (6:15)
07. Я свободен (7:10)
08. Путь в никуда (5:29)
09. Следуй за мной (5:03)
Диск 2
01. Потерянный рай (6:01)
02. Беспечный ангел (3:37)
03. Герой асфальта (5:16)
04. Мёртвая зона (6:43)
05. Закат (3:34)
06. Возьми моё сердце (3:54)
07. Тореро (6:50)
08. Машина смерти (5:10)
09. Воля и разум (7:40)
10. Встань, страх преодолей (bonus track) (4:46)
11. Мечты (bonus track) (4:18)
12. Здесь куют металл (bonus track) (4:23)
Год издания данного диска: 2003
Страна-производитель диска: Россия
Лейбл: Компания Русский хит
Сигнатура: PX 016-03

2004 - Вавилон (сингл)

Тип альбома: Studio (single)
Год первого издания диска: 2004
Продолжительность: 00:17:48
Трэклист:
01. Вавилон (5:46)
02. Я Свободен! (7:13)
03. Смутное Время (4:50)
Bonus: видеоклип на песню "Я свободен"
Год издания данного диска: 2004
Страна-производитель диска: Россия
Лейбл: Moroz Records
Сигнатура: MR 04633 CD

2004 - Путь наверх (2 CD) (переиздание)

Типа альбома: Live
Год первого издания диска: 2003
Продолжительность: 00:57:01+00:54:13
Трэклист:
Диск 1
01. Путь наверх (8:18)
02. Я не сошёл с ума (6:18)
03. Грязь (4:33)
04. Бесы (3:43)
05. Дьявольский зной (5:20)
06. Castlevania (6:15)
07. Я свободен (7:10)
08. Путь в никуда (5:29)
09. Следуй за мной (5:05)
10. Смутное Время (бонус-трек) (4:51)
Диск 2
01. Потерянный рай (5:59)
02. Беспечный ангел (3:35)
03. Герой асфальта (5:14)
04. Мёртвая зона (6:41)
05. Закат (3:32)
06. Возьми моё сердце (3:52)
07. Тореро (6:48)
08. Машина смерти (5:08)
09. Воля и разум (7:42)
10. Вавилон (бонус-трек) (5:42)
Год издания данного диска: 2004
Страна-производитель диска: Россия
Лейбл: Moroz Records
Сигнатура: MR 04633 CD

2005 - Реки Времён

Типа альбома: Studio
Год первого издания диска: 2005
Продолжительность: 00:48:20
Трэклист:
01. На распутье (5:01)
02. Дыханье тьмы (5:07)
03. Пророк (5:27)
04. Не сейчас (4:55)
05. Матричный Бог (6:37)
06. Я здесь (5:39)
07. Наважденье (5:38)
08. Реки Времён (4:57)
09. Призрачный взвод (4:59)
Bonus: видеоклип на песню "Я здесь"
Год издания данного диска: 2005
Страна-производитель диска: Россия
Лейбл: CD-Maximum
Сигнатура: CDM 0850-2359

2006 - Москва'2005

Типа альбома: Live
Год первого издания диска: 2006
Продолжительность: 01:11:37
Трэклист:
01. На распутье (5:09)
02. Дыханье тьмы (5:28)
03. Вавилон (6:04)
04. Наважденье (5:54)
05. Я свободен (7:17)
06. Путь в никуда (5:48)
07. Смутное время (6:41)
08. Я здесь (5:45)
09. Пророк (5:43)
10. Грязь (4:41)
11. Следуй за мной (4:43)
12. Путь наверх (8:26)
Bonus: видеоклип на песню "Вавилон"
Год издания данного диска: 2006
Страна-производитель диска: Россия
Лейбл: CD-Maximum
Сигнатура: CDM 0850-2586/u

2007 - Реки Времён (ремастированное переиздание)

Типа альбома: Studio (remastered)
Год первого издания диска: 2005
Продолжительность: 00:48:17
Трэклист:
01. На Распутье (5:01)
02. Дыхание Тьмы (5:06)
03. Пророк (5:30)
04. Не Сейчас (4:54)
05. Матричный Бог (6:33)
06. Я Здесь (5:38)
07. Наважденье (5:37)
08. Реки Времён (4:58)
09. Призрачный Взвод (5:00)
Bonus: видеоклип на песню "Не сейчас"
Год издания данного диска: 2007
Страна-производитель диска: Россия
Лейбл: CD-Maximum
Сигнатура: CDM 0850-2359

2008 - V лет (2 CD)

Типа альбома: Live
Год первого издания диска: 2008
Продолжительность: 00:59:55+00:57:17
Трэклист:
Диск 1
01. Путь наверх (9:23)
02. Дыханье тьмы (5:14)
03. Вавилон (6:04)
04. Наваждение (5:57)
05. Я здесь (5:45)
06. Пророк (6:32)
07. Не сейчас (5:23)
08. Смутное время (5:46)
09. Никто (5:15)
10. Без тебя (4:36)
Диск 2
01. На распутье (6:02)
02. Матричный Бог (7:01)
03. Грязь (4:41)
04. Путь в никуда (6:01)
05. Реки времён (5:16)
06. Следуй за мной (4:36)
07. Призрачный взвод (6:30)
08. Я свободен (7:27)
09. Воля и разум (9:42)
Год издания данного диска: 2008
Страна-производитель диска: Россия
Лейбл: CD-Maximum
Сигнатура: CDM 0608-2887 / CDM 0608-2888

2009 - На грани (Сингл)

Год первого издания диска: 2009
Продолжительность: 00:16:50
Трэклист:
01. На Грани (5:01)
02. Я Здесь (Акустическая С Оркестром) (5:43)
03. Ночь В Июле (Акустическая С Оркестром) (6:06)

Отчёты EAC

Кипелов & Маврин - Смутное Время

EAC extraction logfile from 14. January 2007, 20:30 for CD
Кипелов и Маврин / Смутное Время
Used drive : PIONEER DVD-RW DVR-111L Adapter: 1 ID: 0
Read mode : Secure with NO C2, accurate stream, disable cache
Read offset correction : 48
Overread into Lead-In and Lead-Out : No
Used output format : Internal WAV Routines
44.100 Hz; 16 Bit; Stereo
Other options :
Fill up missing offset samples with silence : Yes
Delete leading and trailing silent blocks : No
Installed external ASPI interface
Range status and errors
Selected range
Filename E:\Кипелов и Маврин\CDImage.wav
Peak level 96.6 %
Range quality 100.0 %
CRC 5EA78E04
Copy OK
No errors occured
End of status report

Путь Наверх (CD 1)

EAC extraction logfile from 15. January 2007, 0:12 for CD
Кипелов / Путь Наверх #1
Used drive : PIONEER DVD-RW DVR-111L Adapter: 1 ID: 0
Read mode : Secure with NO C2, accurate stream, disable cache
Read offset correction : 48
Overread into Lead-In and Lead-Out : No
Used output format : Internal WAV Routines
44.100 Hz; 16 Bit; Stereo
Other options :
Fill up missing offset samples with silence : Yes
Delete leading and trailing silent blocks : No
Installed external ASPI interface
Range status and errors
Selected range
Filename E:\Путь Наверх\CD1\CDImage.wav
Peak level 100.0 %
Range quality 100.0 %
CRC 7506D9F9
Copy OK
No errors occured
End of status report

Путь Наверх (CD 2)

EAC extraction logfile from 30. January 2008, 10:57 for CD
Unknown Artist / Unknown Title
Used drive : PIONEER DVD-RW DVR-111D Adapter: 0 ID: 0
Read mode : Secure with NO C2, accurate stream, disable cache
Read offset correction : 48
Overread into Lead-In and Lead-Out : No
Used output format : Internal WAV Routines
44.100 Hz; 16 Bit; Stereo
Other options :
Fill up missing offset samples with silence : Yes
Delete leading and trailing silent blocks : No
Installed external ASPI interface
Range status and errors
Selected range
Filename C:\Documents and Settings\DVS\My Documents\Unknown Artist - Unknown Title.wav
Peak level 100.0 %
Range quality 99.9 %
CRC 1421883E
Copy OK
No errors occured
End of status report

Вавилон

Отчёт EAC об извлечении, выполненном 3. февраля 2007, 4:50 для диска:
Кипелов / Вавилон
Дисковод: _NEC DVD_RW ND-3540A Adapter: 1 ID: 0
Режим чтения: Достоверный (C2: нет, Точный поток: да, Отключение кэша: да)
Коррекция смещения при чтении: 48
Способность читать области Lead-in и Lead-out : Нет
Выходной формат: Внутренние WAV-операции
44.100 Гц; 16 бит; стерео
Другие параметры:
Заполнение пропущенных сэмплов тишиной : Да
Удаление блоков с тишиной в начале и конце : Нет
Установленный внешний ASPI-интерфейс
Характеристики диапазона извлечения и сообщения об ошибках
Выбранный диапазон
Имя файла C:\Кипелов - Вавилон.wav
Пиковый уровень 100.0 %
Качество диапазона 100.0 %
CRC 99016062
Копирование... OK
Ошибок не произошло
Конец отчёта

Путь наверх (CD 1, переиздание)

Exact Audio Copy V0.99 prebeta 3 from 28. July 2007
Отчёт EAC об извлечении, выполненном 17. декабря 2007, 21:47
Кипелов / Путь Наверх (часть 1) (переиздание 2004)
Дисковод: Optiarc DVD RW AD-7170S Adapter: 1 ID: 0
Режим чтения : Достоверность
Использование точного потока : Да
Отключение кэша аудио : Да
Использование указателей C2 : Нет
Коррекция смещения при чтении : 48
Способность читать области Lead-in и Lead-out : Нет
Заполнение пропущенных сэмплов тишиной : Да
Удаление блоков с тишиной в начале и конце : Нет
При вычислениях CRC использовались нулевые сэмплы : Да
Интерфейс : Установленный внешний ASPI-интерфейс
Выходной формат : Внутренние WAV-операции
Формат сэмплов : 44.100 Гц; 16 бит; стерео
Смещение при сжатии : 48
TOC извлечённого CD
Трек | Старт | Длительность | Начальный сектор | Конечный сектор
---------------------------------------------------------------------
1 | 0:00.00 | 8:17.45 | 0 | 37319
2 | 8:17.45 | 6:18.37 | 37320 | 65706
3 | 14:36.07 | 4:33.00 | 65707 | 86181
4 | 19:09.07 | 3:42.45 | 86182 | 102876
5 | 22:51.52 | 5:20.19 | 102877 | 126895
6 | 28:11.71 | 6:14.66 | 126896 | 155011
7 | 34:26.62 | 7:09.65 | 155012 | 187251
8 | 41:36.52 | 5:29.30 | 187252 | 211956
9 | 47:06.07 | 5:04.40 | 211957 | 234796
10 | 52:10.47 | 4:51.14 | 234797 | 256635
Характеристики диапазона извлечения и сообщения об ошибках
Выбранный диапазон
Имя файла H:\Кипелов - Путь Наверх (часть 1) (переиздание 2004).wav
Пиковый уровень 100.0 %
Качество диапазона 99.9 %
CRC копии 0EE13B53
Копирование... OK
Ошибок не произошло
AccurateRip: сводка
Трек 1 нет в базе данных
Трек 2 нет в базе данных
Трек 3 нет в базе данных
Трек 4 нет в базе данных
Трек 5 нет в базе данных
Трек 6 нет в базе данных
Трек 7 нет в базе данных
Трек 8 нет в базе данных
Трек 9 нет в базе данных
Трек 10 нет в базе данных
Ни одного трека нет в базе AccurateRip
Конец отчёта

Путь наверх (CD 2, переиздание)

Exact Audio Copy V0.99 prebeta 3 from 28. July 2007
Отчёт EAC об извлечении, выполненном 18. декабря 2007, 16:54
Кипелов / Путь Наверх (часть 2) (переиздание 2004)
Дисковод: Optiarc DVD RW AD-7170S Adapter: 1 ID: 0
Режим чтения : Достоверность
Использование точного потока : Да
Отключение кэша аудио : Да
Использование указателей C2 : Нет
Коррекция смещения при чтении : 48
Способность читать области Lead-in и Lead-out : Нет
Заполнение пропущенных сэмплов тишиной : Да
Удаление блоков с тишиной в начале и конце : Нет
При вычислениях CRC использовались нулевые сэмплы : Да
Интерфейс : Установленный внешний ASPI-интерфейс
Выходной формат : Внутренние WAV-операции
Формат сэмплов : 44.100 Гц; 16 бит; стерео
Смещение при сжатии : 48
TOC извлечённого CD
Трек | Старт | Длительность | Начальный сектор | Конечный сектор
---------------------------------------------------------------------
1 | 0:00.00 | 5:59.21 | 0 | 26945
2 | 5:59.21 | 3:34.72 | 26946 | 43067
3 | 9:34.18 | 5:14.27 | 43068 | 66644
4 | 14:48.45 | 6:41.24 | 66645 | 96743
5 | 21:29.69 | 3:31.54 | 96744 | 112622
6 | 25:01.48 | 3:51.67 | 112623 | 130014
7 | 28:53.40 | 6:47.42 | 130015 | 160581
8 | 35:41.07 | 5:08.24 | 160582 | 183705
9 | 40:49.31 | 7:42.31 | 183706 | 218386
10 | 48:31.62 | 5:41.55 | 218387 | 244016
Характеристики диапазона извлечения и сообщения об ошибках
Выбранный диапазон
Имя файла H:\Кипелов - Путь Наверх (часть 2) (переиздание 2004).wav
Пиковый уровень 100.0 %
Качество диапазона 99.9 %
CRC копии 23A9B419
Копирование... OK
Ошибок не произошло
AccurateRip: сводка
Трек 1 нет в базе данных
Трек 2 нет в базе данных
Трек 3 нет в базе данных
Трек 4 нет в базе данных
Трек 5 нет в базе данных
Трек 6 нет в базе данных
Трек 7 нет в базе данных
Трек 8 нет в базе данных
Трек 9 нет в базе данных
Трек 10 нет в базе данных
Ни одного трека нет в базе AccurateRip
Конец отчёта

Реки Времён

Exact Audio Copy V0.99 prebeta 3 from 28. July 2007
Отчёт EAC об извлечении, выполненном 17. декабря 2007, 11:41
Кипелов / Реки Времён
Дисковод: Optiarc DVD RW AD-7170S Adapter: 1 ID: 0
Режим чтения : Достоверность
Использование точного потока : Да
Отключение кэша аудио : Да
Использование указателей C2 : Нет
Коррекция смещения при чтении : 48
Способность читать области Lead-in и Lead-out : Нет
Заполнение пропущенных сэмплов тишиной : Да
Удаление блоков с тишиной в начале и конце : Нет
При вычислениях CRC использовались нулевые сэмплы : Да
Интерфейс : Установленный внешний ASPI-интерфейс
Выходной формат : Внутренние WAV-операции
Формат сэмплов : 44.100 Гц; 16 бит; стерео
Смещение при сжатии : 48
TOC извлечённого CD
Трек | Старт | Длительность | Начальный сектор | Конечный сектор
---------------------------------------------------------------------
1 | 0:00.00 | 5:01.34 | 0 | 22608
2 | 5:01.34 | 5:07.21 | 22609 | 45654
3 | 10:08.55 | 5:26.58 | 45655 | 70162
4 | 15:35.38 | 4:55.21 | 70163 | 92308
5 | 20:30.59 | 6:36.63 | 92309 | 122071
6 | 27:07.47 | 5:38.41 | 122072 | 147462
7 | 32:46.13 | 5:38.19 | 147463 | 172831
8 | 38:24.32 | 4:56.41 | 172832 | 195072
9 | 43:20.73 | 4:59.03 | 195073 | 217500
Характеристики диапазона извлечения и сообщения об ошибках
Выбранный диапазон
Имя файла H:\Кипелов - Реки Времён.wav
Пиковый уровень 100.0 %
Качество диапазона 99.9 %
CRC копии 8132CDFF
Копирование... OK
Ошибок не произошло
AccurateRip: сводка
Трек 1 точное извлечение (доверие 1) [4CF114C7]
Трек 2 точное извлечение (доверие 1) [9E5C84E6]
Трек 3 точное извлечение (доверие 1) [1CD79615]
Трек 4 точное извлечение (доверие 1) [308D0613]
Трек 5 точное извлечение (доверие 1) [EA78D773]
Трек 6 точное извлечение (доверие 1) [B0F29A87]
Трек 7 точное извлечение (доверие 1) [77EEA701]
Трек 8 точное извлечение (доверие 1) [4E49206D]
Трек 9 точное извлечение (доверие 1) [1439A094]
Все треки извлечены точно
Конец отчёта

Москва'2005

Exact Audio Copy V0.99 prebeta 3 from 28. July 2007
Отчёт EAC об извлечении, выполненном 17. декабря 2007, 11:57
Кипелов / Москва'2005
Дисковод: Optiarc DVD RW AD-7170S Adapter: 1 ID: 0
Режим чтения : Достоверность
Использование точного потока : Да
Отключение кэша аудио : Да
Использование указателей C2 : Нет
Коррекция смещения при чтении : 48
Способность читать области Lead-in и Lead-out : Нет
Заполнение пропущенных сэмплов тишиной : Да
Удаление блоков с тишиной в начале и конце : Нет
При вычислениях CRC использовались нулевые сэмплы : Да
Интерфейс : Установленный внешний ASPI-интерфейс
Выходной формат : Внутренние WAV-операции
Формат сэмплов : 44.100 Гц; 16 бит; стерео
Смещение при сжатии : 48
TOC извлечённого CD
Трек | Старт | Длительность | Начальный сектор | Конечный сектор
---------------------------------------------------------------------
1 | 0:00.00 | 5:09.36 | 0 | 23210
2 | 5:09.36 | 5:27.39 | 23211 | 47774
3 | 10:37.00 | 6:04.06 | 47775 | 75080
4 | 16:41.06 | 5:53.60 | 75081 | 101615
5 | 22:34.66 | 7:17.15 | 101616 | 134405
6 | 29:52.06 | 5:47.46 | 134406 | 160476
7 | 35:39.52 | 6:40.55 | 160477 | 190531
8 | 42:20.32 | 5:45.13 | 190532 | 216419
9 | 48:05.45 | 5:42.42 | 216420 | 242111
10 | 53:48.12 | 4:40.56 | 242112 | 263167
11 | 58:28.68 | 4:43.05 | 263168 | 284397
12 | 63:11.73 | 8:25.51 | 284398 | 322323
Характеристики диапазона извлечения и сообщения об ошибках
Выбранный диапазон
Имя файла H:\Кипелов - Москва'2005.wav
Пиковый уровень 97.7 %
Качество диапазона 99.9 %
CRC копии CA490A5C
Копирование... OK
Ошибок не произошло
AccurateRip: сводка
Трек 1 нет в базе данных
Трек 2 нет в базе данных
Трек 3 нет в базе данных
Трек 4 нет в базе данных
Трек 5 нет в базе данных
Трек 6 нет в базе данных
Трек 7 нет в базе данных
Трек 8 нет в базе данных
Трек 9 нет в базе данных
Трек 10 нет в базе данных
Трек 11 нет в базе данных
Трек 12 нет в базе данных
Ни одного трека нет в базе AccurateRip
Конец отчёта

Реки Времён (переиздание)

EAC extraction logfile from 22. January 2008, 21:37 for CD
Кипелов / Реки Времён [ремикс ремастер]
Used drive : PIONEER DVD-RW DVR-212D Adapter: 0 ID: 2
Read mode : Secure with NO C2, accurate stream, disable cache
Read offset correction : 48
Overread into Lead-In and Lead-Out : No
Used output format : Internal WAV Routines
44.100 Hz; 16 Bit; Stereo
Other options :
Fill up missing offset samples with silence : Yes
Delete leading and trailing silent blocks : No
Installed external ASPI interface
Range status and errors
Selected range
Filename D:\Kipelov\Кипелов - Реки Времён [ремикс ремастер].wav
Peak level 100.0 %
Range quality 100.0 %
CRC 1FF19498
Copy OK
No errors occured
End of status report

V лет (CD 1)

Exact Audio Copy V0.99 prebeta 4 from 23. January 2008
EAC extraction logfile from 10. July 2008, 16:32
Кипелов / V лет (CD 1)
Used drive : Optiarc DVD RW AD-7170S Adapter: 1 ID: 0
Read mode : Secure
Utilize accurate stream : Yes
Defeat audio cache : Yes
Make use of C2 pointers : No
Read offset correction : 48
Overread into Lead-In and Lead-Out : No
Fill up missing offset samples with silence : Yes
Delete leading and trailing silent blocks : No
Null samples used in CRC calculations : Yes
Used interface : Installed external ASPI interface
Used output format : Internal WAV Routines
Sample format : 44.100 Hz; 16 Bit; Stereo
TOC of the extracted CD
Track | Start | Length | Start sector | End sector
---------------------------------------------------------
1 | 0:00.00 | 9:23.18 | 0 | 42242
2 | 9:23.18 | 5:14.23 | 42243 | 65815
3 | 14:37.41 | 6:04.06 | 65816 | 93121
4 | 20:41.47 | 5:57.30 | 93122 | 119926
5 | 26:39.02 | 5:44.61 | 119927 | 145787
6 | 32:23.63 | 6:32.26 | 145788 | 175213
7 | 38:56.14 | 5:23.04 | 175214 | 199442
8 | 44:19.18 | 5:45.39 | 199443 | 225356
9 | 50:04.57 | 5:15.04 | 225357 | 248985
10 | 55:19.61 | 4:35.42 | 248986 | 269652
Range status and errors
Selected range
Filename I:\Рипы EAC\Кипелов - V лет (CD 1).wav
Peak level 99.8 %
Range quality 99.9 %
Copy CRC A4642F4F
Copy OK
No errors occurred
AccurateRip summary
Track 1 not present in database
Track 2 not present in database
Track 3 not present in database
Track 4 not present in database
Track 5 not present in database
Track 6 not present in database
Track 7 not present in database
Track 8 not present in database
Track 9 not present in database
Track 10 not present in database
None of the tracks are present in the AccurateRip database
End of status report

V лет (CD 2)

Exact Audio Copy V0.99 prebeta 4 from 23. January 2008
EAC extraction logfile from 10. July 2008, 16:48
Кипелов / V лет (CD 2)
Used drive : Optiarc DVD RW AD-7170S Adapter: 1 ID: 0
Read mode : Secure
Utilize accurate stream : Yes
Defeat audio cache : Yes
Make use of C2 pointers : No
Read offset correction : 48
Overread into Lead-In and Lead-Out : No
Fill up missing offset samples with silence : Yes
Delete leading and trailing silent blocks : No
Null samples used in CRC calculations : Yes
Used interface : Installed external ASPI interface
Used output format : Internal WAV Routines
Sample format : 44.100 Hz; 16 Bit; Stereo
TOC of the extracted CD
Track | Start | Length | Start sector | End sector
---------------------------------------------------------
1 | 0:00.00 | 6:02.37 | 0 | 27186
2 | 6:02.37 | 7:00.43 | 27187 | 58729
3 | 13:03.05 | 4:41.27 | 58730 | 79831
4 | 17:44.32 | 6:01.08 | 79832 | 106914
5 | 23:45.40 | 5:16.30 | 106915 | 130644
6 | 29:01.70 | 4:35.50 | 130645 | 151319
7 | 33:37.45 | 6:30.08 | 151320 | 180577
8 | 40:07.53 | 7:27.06 | 180578 | 214108
9 | 47:34.59 | 9:42.26 | 214109 | 257784
Range status and errors
Selected range
Filename I:\Рипы EAC\Кипелов - V лет (CD 2).wav
Peak level 99.8 %
Range quality 100.0 %
Copy CRC 286853BD
Copy OK
No errors occurred
AccurateRip summary
Track 1 not present in database
Track 2 not present in database
Track 3 not present in database
Track 4 not present in database
Track 5 not present in database
Track 6 not present in database
Track 7 not present in database
Track 8 not present in database
Track 9 not present in database
None of the tracks are present in the AccurateRip database
End of status report

На грани

Отчёт EAC об извлечении, выполненном 20. февраля 2009, 23:39 для диска:
Кипелов / На Грани
Дисковод: _NEC DVD_RW ND-3500AG Adapter: 0 ID: 0
Режим чтения: Достоверный (C2: нет, Точный поток: да, Отключение кэша: да)
Коррекция смещения при чтении: 48
Способность читать области Lead-in и Lead-out : Нет
Выходной формат: Внутренние WAV-операции
44.100 Гц; 16 бит; стерео
Другие параметры:
Заполнение пропущенных сэмплов тишиной : Да
Удаление блоков с тишиной в начале и конце : Нет
Установленный внешний ASPI-интерфейс
Характеристики диапазона извлечения и сообщения об ошибках
Выбранный диапазон
Имя файла H:\EAC Rips\Кипелов - На Грани (2009)\Кипелов - На Грани.wav
Пиковый уровень 99.8 %
Качество диапазона 100.0 %
CRC C7C3A8EE
Копирование... OK
Ошибок не произошло
Конец отчёта

Отчет Audiochecker

Started at: воскресенье, 21. 02. 2010. - 21:57.42
13 files found
01 -===- D:\Музон\Кипелов\01 Кипелов & Маврин - Смутное время (1997)\Кипелов & Маврин - Смутное время.flac
Extracted successfully
Conclusion: this track is CDDA with probability 100%
Tempfile successfully deleted.
02 -===- D:\Музон\Кипелов\02 Путь Наверх (CD 1)\Путь наверх (CD 1).flac
Extracted successfully
Conclusion: this track is CDDA with probability 100%
Tempfile successfully deleted.
03 -===- D:\Музон\Кипелов\03 Путь Наверх (CD 2)\Путь наверх (CD 2).flac
Extracted successfully
Conclusion: this track is CDDA with probability 100%
Tempfile successfully deleted.
04 -===- D:\Музон\Кипелов\04 Вавилон (сингл) (2004)\Кипелов - Вавилон.flac
Extracted successfully
Conclusion: this track is CDDA with probability 100%
Tempfile successfully deleted.
05 -===- D:\Музон\Кипелов\05 Вавилон (переиздание) (2005)\Кипелов - Вавилон.flac
Extracted successfully
Conclusion: this track is CDDA with probability 99%
Tempfile successfully deleted.
06 -===- D:\Музон\Кипелов\05 Путь наверх (CD 1) (2003, переиздание 2004)\Путь Наверх (CD 1) (2003, переиздание 2004).flac
Extracted successfully
Conclusion: this track is CDDA with probability 100%
Tempfile successfully deleted.
07 -===- D:\Музон\Кипелов\06 Путь наверх (CD 2) (2003, переиздание 2004)\Путь Наверх (CD 2) (2003, переиздание 2004).flac
Extracted successfully
Conclusion: this track is CDDA with probability 100%
Tempfile successfully deleted.
08 -===- D:\Музон\Кипелов\07 Реки времён (2005)\Кипелов - Реки Времён.flac
Extracted successfully
Conclusion: this track is CDDA with probability 100%
Tempfile successfully deleted.
09 -===- D:\Музон\Кипелов\08 Москва'2005 (2006)\Кипелов - Москва'2005.flac
Extracted successfully
Conclusion: this track is CDDA with probability 100%
Tempfile successfully deleted.
10 -===- D:\Музон\Кипелов\09 Реки времён (2005, ремастированное переиздание 2007)\Кипелов - Реки Времён (ремастированное переиздание).flac
Extracted successfully
Conclusion: this track is CDDA with probability 100%
Tempfile successfully deleted.
11 -===- D:\Музон\Кипелов\10 V лет (CD 1) (2008)\Кипелов - V лет (CD 1).flac
Extracted successfully
Conclusion: this track is CDDA with probability 100%
Tempfile successfully deleted.
12 -===- D:\Музон\Кипелов\11 V лет (CD 2) (2008)\Кипелов - V лет (CD 2).flac
Extracted successfully
Conclusion: this track is CDDA with probability 100%
Tempfile successfully deleted.
13 -===- D:\Музон\Кипелов\12 На Грани (сингл) (2009)\Кипелов - На Грани.flac
Extracted successfully
Conclusion: this track is CDDA with probability 99%
Tempfile successfully deleted.
Finished at: понедельник, 22. 02. 2010. - 0:17.24 (operation time: 2:19.42)
 

Текущее время: Сегодня 21:54

Часовой пояс: GMT + 3