Сегодня идет свободное скачивание без начисления Download

Результатов поиска: 194

Автор Сообщение

Urtecho

Пост 26-Авг-2014 11:47

[Цитировать]

Thanks for the upload!

Dracula

Пост 14-Июн-2013 18:11

[Цитировать]

Топик был перенесен из форума Movies в форум Anime


p2000s

Omen

Пост 14-Июн-2013 14:14

[Цитировать]

Ну не может моя сестра быть такой милой / Ore no Imouto ga Konna ni Kawaii wake ga nai
Название альбома: Complete Collection+ - Oreimo Comp+!
Год выпуска: 2011 г.
Страна: Япония
Аудио кодек: FLAC (*.flac)
Тип рипа: image+.cue
Битрейт аудио: lossless
Продолжительность: 01:32:09
Наличие сканов в содержимом раздачи: нет
Треклист:
CD 1
Продолжительность: 1:11:51
01. Imouto Please!
02. Shine!
03. Horaism
04. Shiroi Kokoro
05. Orange
06. Maegami
07. Masquerade!
08. Chameleon Daughter
09. Suki Nandamon!
10. Iie, Tom wa Imouto ni Taishite Seiteki na Koufun wo Oboetimasu
11. Akihabara Dance Now!!
12. Tadaima.
13. READY
14. Inochi Mijikashi Koiseyo Otome
15. Shokuzai no Serenade
16. keep on runnin'
17. SECRET x 2
CD 2
Продолжительность: 20:18
01. irony -TV Mix-
02. Holiday!
03. Platonic prison
04. WONDERFUL GIRL
05. Meteor Impact (Full Version)

Лог XLD

CD 1 X Lossless Decoder version 20130407 (143.0)
XLD AccurateRip checking logfile
TOC of the selected file Track | Start | Length | Start sector | End sector --------------------------------------------------------- 1 | 00:00:00 | 04:03:39 | 0 | 18263 2 | 04:03:39 | 04:02:39 | 18264 | 36452 3 | 08:06:03 | 04:41:56 | 36453 | 57583 4 | 12:47:59 | 06:33:14 | 57584 | 87072 5 | 19:20:73 | 04:39:47 | 87073 | 108044 6 | 24:00:45 | 03:35:19 | 108045 | 124188 7 | 27:35:64 | 04:15:31 | 124189 | 143344 8 | 31:51:20 | 04:05:73 | 143345 | 161792 9 | 35:57:18 | 03:43:19 | 161793 | 178536 10 | 39:40:37 | 03:24:35 | 178537 | 193871 11 | 43:04:72 | 03:29:25 | 193872 | 209571 12 | 46:34:22 | 04:30:03 | 209572 | 229824 13 | 51:04:25 | 04:14:05 | 229825 | 248879 14 | 55:18:30 | 04:24:73 | 248880 | 268752 15 | 59:43:28 | 04:16:66 | 268753 | 288018 16 | 64:00:19 | 04:03:08 | 288019 | 306251 17 | 68:03:27 | 03:47:65 | 306252 | 323341
List of alternate offset correction values (1) 102 (confidence 10)
AccurateRip Summary (DiscID: 002d8776-023c400d-0910d711) Track 01 : OK (v1, confidence 9/9, with different offset) Track 02 : OK (v1, confidence 9/9, with different offset) Track 03 : OK (v1, confidence 9/9, with different offset) Track 04 : OK (v1, confidence 10/10, with different offset) Track 05 : OK (v1, confidence 9/9, with different offset) Track 06 : OK (v1, confidence 9/9, with different offset) Track 07 : OK (v1, confidence 10/10, with different offset) Track 08 : OK (v1, confidence 9/9, with different offset) Track 09 : OK (v1, confidence 9/9, with different offset) Track 10 : OK (v1, confidence 9/9, with different offset) Track 11 : OK (v1, confidence 9/9, with different offset) Track 12 : OK (v1, confidence 9/9, with different offset) Track 13 : OK (v1, confidence 9/9, with different offset) Track 14 : OK (v1, confidence 10/10, with different offset) Track 15 : OK (v1, confidence 9/9, with different offset) Track 16 : OK (v1, confidence 10/10, with different offset) Track 17 : OK (v1, confidence 10/10, with different offset) ->All tracks accurately ripped.
All Tracks Album gain : -10.53 dB Peak : 0.999878 CRC32 hash : 98AD6A31 CRC32 hash (skip zero) : B7BCF3E1
Track 01 Track gain : -10.47 dB Peak : 0.999878 CRC32 hash : 1D135797 CRC32 hash (skip zero) : 5685E0AE AccurateRip v1 signature : ED1D6DE1 (D8AE987B w/correction) AccurateRip v2 signature : 9572FA0C ->Accurately ripped with different offset (v1, confidence 9/9, offset +102)
Track 02 Track gain : -11.54 dB Peak : 0.999878 CRC32 hash : DDE69A60 CRC32 hash (skip zero) : 57A9688B AccurateRip v1 signature : 6942BAAF (C8BA8E51 w/correction) AccurateRip v2 signature : 773B91A5 ->Accurately ripped with different offset (v1, confidence 9/9, offset +102)
Track 03 Track gain : -10.99 dB Peak : 0.999878 CRC32 hash : 6909ECBF CRC32 hash (skip zero) : 84B37953 AccurateRip v1 signature : B972699D (903080E4 w/correction) AccurateRip v2 signature : D2228964 ->Accurately ripped with different offset (v1, confidence 9/9, offset +102)
Track 04 Track gain : -8.56 dB Peak : 0.999878 CRC32 hash : 91B0D931 CRC32 hash (skip zero) : FDC127AE AccurateRip v1 signature : 7DC00B28 (82C60172 w/correction) AccurateRip v2 signature : B88DE0E3 ->Accurately ripped with different offset (v1, confidence 10/10, offset +102)
Track 05 Track gain : -10.07 dB Peak : 0.999878 CRC32 hash : 6A319821 CRC32 hash (skip zero) : 56336C19 AccurateRip v1 signature : 24848C93 (0067A0B8 w/correction) AccurateRip v2 signature : 323F0C65 ->Accurately ripped with different offset (v1, confidence 9/9, offset +102)
Track 06 Track gain : -9.56 dB Peak : 0.999878 CRC32 hash : F706BBBA CRC32 hash (skip zero) : 6DF48E6D AccurateRip v1 signature : 2CDC767A (88EDF6DE w/correction) AccurateRip v2 signature : A41C8C96 ->Accurately ripped with different offset (v1, confidence 9/9, offset +102)
Track 07 Track gain : -10.37 dB Peak : 0.999878 CRC32 hash : EE685F24 CRC32 hash (skip zero) : FBEBD71B AccurateRip v1 signature : 72634AAA (602CD71E w/correction) AccurateRip v2 signature : 2AE8C463 ->Accurately ripped with different offset (v1, confidence 10/10, offset +102)
Track 08 Track gain : -10.60 dB Peak : 0.999878 CRC32 hash : 1417F4B7 CRC32 hash (skip zero) : 5A8B89EE AccurateRip v1 signature : 997045E0 (FC3F075A w/correction) AccurateRip v2 signature : 8E3D3EB8 ->Accurately ripped with different offset (v1, confidence 9/9, offset +102)
Track 09 Track gain : -11.30 dB Peak : 0.999878 CRC32 hash : DD1C15C6 CRC32 hash (skip zero) : 482E50C4 AccurateRip v1 signature : B5011533 (B41B18EF w/correction) AccurateRip v2 signature : 702EDD3A ->Accurately ripped with different offset (v1, confidence 9/9, offset +102)
Track 10 Track gain : -8.62 dB Peak : 0.999878 CRC32 hash : A0C1C329 CRC32 hash (skip zero) : E187CB5E AccurateRip v1 signature : 3288DC60 (29F667E6 w/correction) AccurateRip v2 signature : 9055663A ->Accurately ripped with different offset (v1, confidence 9/9, offset +102)
Track 11 Track gain : -10.14 dB Peak : 0.999878 CRC32 hash : E4262E8E CRC32 hash (skip zero) : F88844C0 AccurateRip v1 signature : B332B7DF (1765BB0D w/correction) AccurateRip v2 signature : FC5C4CA4 ->Accurately ripped with different offset (v1, confidence 9/9, offset +102)
Track 12 Track gain : -9.89 dB Peak : 0.999878 CRC32 hash : 92AC85E3 CRC32 hash (skip zero) : C0C02935 AccurateRip v1 signature : E33FD587 (10C8CFCF w/correction) AccurateRip v2 signature : A9200D18 ->Accurately ripped with different offset (v1, confidence 9/9, offset +102)
Track 13 Track gain : -11.31 dB Peak : 0.999878 CRC32 hash : 83FE13B8 CRC32 hash (skip zero) : B931AE4C AccurateRip v1 signature : 02C45B3B (0EA2A421 w/correction) AccurateRip v2 signature : 48CDC857 ->Accurately ripped with different offset (v1, confidence 9/9, offset +102)
Track 14 Track gain : -9.91 dB Peak : 0.999878 CRC32 hash : 1E2BC829 CRC32 hash (skip zero) : 54267BFC AccurateRip v1 signature : 118803EF (9F458500 w/correction) AccurateRip v2 signature : 76D4D724 ->Accurately ripped with different offset (v1, confidence 10/10, offset +102)
Track 15 Track gain : -10.91 dB Peak : 0.999878 CRC32 hash : B78C36A5 CRC32 hash (skip zero) : 5E486A75 AccurateRip v1 signature : 1A4C85F2 (56D389DD w/correction) AccurateRip v2 signature : 6FC40A54 ->Accurately ripped with different offset (v1, confidence 9/9, offset +102)
Track 16 Track gain : -9.67 dB Peak : 0.999878 CRC32 hash : E3130E6B CRC32 hash (skip zero) : B3469579 AccurateRip v1 signature : 0864B695 (466EA7F1 w/correction) AccurateRip v2 signature : BBE3D5D5 ->Accurately ripped with different offset (v1, confidence 10/10, offset +102)
Track 17 Track gain : -10.77 dB Peak : 0.999878 CRC32 hash : FAC770F3 CRC32 hash (skip zero) : 6DA968E3 AccurateRip v1 signature : 7F4AD0ED (6BA29507 w/correction) AccurateRip v2 signature : EDE9A917 ->Accurately ripped with different offset (v1, confidence 10/10, offset +102)
End of status report
CD 2
X Lossless Decoder version 20130407 (143.0)
XLD AccurateRip checking logfile
TOC of the selected file Track | Start | Length | Start sector | End sector --------------------------------------------------------- 1 | 00:00:00 | 01:36:35 | 0 | 7234 2 | 01:36:35 | 05:05:40 | 7235 | 30149 3 | 06:42:00 | 04:23:15 | 30150 | 49889 4 | 11:05:15 | 05:24:71 | 49890 | 74260 5 | 16:30:11 | 03:48:03 | 74261 | 91363
List of alternate offset correction values (1) 102 (confidence 9)
AccurateRip Summary (DiscID: 0003dbe4-0012ad22-4204c205) Track 01 : OK (v1, confidence 8/8, with different offset) Track 02 : OK (v1, confidence 8/8, with different offset) Track 03 : OK (v1, confidence 8/8, with different offset) Track 04 : OK (v1, confidence 8/8, with different offset) Track 05 : OK (v1, confidence 9/9, with different offset) ->All tracks accurately ripped.
All Tracks Album gain : -11.22 dB Peak : 0.999878 CRC32 hash : F5C6ADB8 CRC32 hash (skip zero) : F0B07D1A
Track 01 Track gain : -10.17 dB Peak : 0.999878 CRC32 hash : 6DD913C4 CRC32 hash (skip zero) : 0EA3DAD1 AccurateRip v1 signature : 07C45449 (F446B277 w/correction) AccurateRip v2 signature : 7FEF3A09 ->Accurately ripped with different offset (v1, confidence 8/8, offset +102)
Track 02 Track gain : -10.68 dB Peak : 0.999878 CRC32 hash : 6711D034 CRC32 hash (skip zero) : 841F4B63 AccurateRip v1 signature : 522CB8BA (F4A3E606 w/correction) AccurateRip v2 signature : 479CF670 ->Accurately ripped with different offset (v1, confidence 8/8, offset +102)
Track 03 Track gain : -11.29 dB Peak : 0.999878 CRC32 hash : 530F63E2 CRC32 hash (skip zero) : 7D9F10E1 AccurateRip v1 signature : 966A2483 (BBED2BFD w/correction) AccurateRip v2 signature : 0A7F3844 ->Accurately ripped with different offset (v1, confidence 8/8, offset +102)
Track 04 Track gain : -11.92 dB Peak : 0.999878 CRC32 hash : AB417B43 CRC32 hash (skip zero) : 8056115D AccurateRip v1 signature : FFD4C532 (B6A02978 w/correction) AccurateRip v2 signature : ADFD4E05 ->Accurately ripped with different offset (v1, confidence 8/8, offset +102)
Track 05 Track gain : -10.92 dB Peak : 0.999878 CRC32 hash : 5A4CEAA4 CRC32 hash (skip zero) : F04B7B37 AccurateRip v1 signature : 3D120BF7 (8A5DD9D9 w/correction) AccurateRip v2 signature : CC0819CF ->Accurately ripped with different offset (v1, confidence 9/9, offset +102)
End of status report

Лог audiochecker

CD 1 AUDIOCHECKER v2.0 beta (build 457) - by Dester - opdester@freemail.hu~~~~~~~~~~~~~~~~~~~~~~~~~~~~~~~~~~
Started at: Friday, 14. 06. 2013. - 12:58.061 file found
1 -===- Z:\Users\macintosh\Downloads\oreimo comp+ flac\Disc1.flac Extracted successfully Conclusion: this track is CDDA with probability 99% Tempfile successfully deleted.
Finished at: Friday, 14. 06. 2013. - 13:02.30 (operation time: 0:04.24)
CD2
AUDIOCHECKER v2.0 beta (build 457) - by Dester - opdester@freemail.hu~~~~~~~~~~~~~~~~~~~~~~~~~~~~~~~~~~-=== DO NOT EDIT THIS FILE! ===-
Path: ...\oreimo comp+ flac
1 -=- Disc2.flac -=- CDDA (100%)
84260516

Скриншоты спектра частот

CD1

CD2

Dracula

Пост 09-Июн-2013 06:32

[Цитировать]

Топик был перенесен из форума Movies в форум Anime


p2000s

Omen

Пост 09-Июн-2013 02:48

[Цитировать]

Половое и нравственное воспитание для 30-летних / 30-sai no Hoken Taiiku- -Название альбома: OP, ED Singles
Год выпуска: 2011 г.
Страна: Япония
Аудио кодек: APE/FLAC
Тип рипа: image+.cue
Битрейт аудио: lossless
Продолжительность: 31:08
Наличие сканов: да

OP Single - Koi no Doutei

Исполнитель: kanonxkanon
Продолжительность: 18:39
Треклист:
01 - Koi no Doutei
02 - Ren'ai no Susume
03 - Koi no Doutei [TV SIZE]
04 - Koi no Doutei [madmaid 17's DT Bassline remix]
05 - Koi no Doutei [Instrumental]

Лог создания рипа

Exact Audio Copy V0.99 prebeta 5 from 4. May 2009
EAC 取り込みログファイル 日付 : 18. 6月 2011, 12:47
kanon×kanon / 恋の道程
使用ドライブ : PLEXTOR DVDR PX-880SA Adapter: 0 ID: 0
読み込みモード : セキュアモードドライブが正確なデータ転送能力を持つ : はいオーディオキャッシュを使用できる : いいえC2エラー情報を検出する : はい
読み込みサンプルオフセット訂正値 : 6リードイン・リードアウトをオーバーリードする : いいえ欠落したオフセットサンプルを無音で補完する : はい曲の先頭と末端の無音領域を削除する : いいえCRC計算で無音のサンプルを使用するか : いいえ使用インターフェース : Win NT & 2000用のクラスドライバ
使用出力モード : 内蔵WAV出力ルーチンサンプルフォーマット : 44.100 Hz; 16 Bit; ステレオ使用したエンコードオフセットの値 : : 0
TOC情報を抜き出します
トラック | スタート | 長さ | 始めのセクター | 最終セクター ---------------------------------------------------------------- 1 | 0:00.00 | 3:49.11 | 0 | 17185 2 | 3:49.11 | 4:08.32 | 17186 | 35817 3 | 7:57.43 | 1:33.45 | 35818 | 42837 4 | 9:31.13 | 5:20.11 | 42838 | 66848 5 | 14:51.24 | 3:48.41 | 66849 | 83989
範囲取り込みステータス & エラー
選択された範囲
ファイル名 S:\UP\新しいフォルダー\kanon×kanon - 恋の道程.wav
ピークレベル 100.0 % 範囲取り込み品質 100.0 % コピーCRC 97C02B94 コピー OK
エラーは発生しませんでした
ステータス報告完了

ED Single - Learn Together

Исполнитель: AiRI
Продолжительность: 12:28
Треклист:
01 - learn together
02 - Time has come
03 - You'll never walk alone

Лог создания рипа

Exact Audio Copy V1.0 beta 1 from 15. November 2010
EAC extraction logfile from 25. May 2011, 18:46
AiRI / LACM-4813
Used drive : PIONEER DVD-RW DVR-216L Adapter: 0 ID: 3
Read mode : SecureUtilize accurate stream : YesDefeat audio cache : YesMake use of C2 pointers : No
Read offset correction : 66Overread into Lead-In and Lead-Out : NoFill up missing offset samples with silence : YesDelete leading and trailing silent blocks : NoNull samples used in CRC calculations : NoUsed interface : Native Win32 interface for Win NT & 2000
Used output format : Internal WAV RoutinesSample format : 44.100 Hz; 16 Bit; Stereo
TOC of the extracted CD
Track | Start | Length | Start sector | End sector --------------------------------------------------------- 1 | 0:00.00 | 4:01.54 | 0 | 18128 2 | 4:01.54 | 3:43.54 | 18129 | 34907 3 | 7:45.33 | 4:43.42 | 34908 | 56174
Range status and errors
Selected range
Filename D:\Desktop\LACM-4813.wav
Peak level 98.8 % Extraction speed 2.0 X Range quality 100.0 % Copy CRC 3D94E6DE Copy OK
No errors occurred
End of status report

Dracula

Пост 03-Июн-2013 22:34

[Цитировать]

Топик был перенесен из форума Movies в форум Anime


p2000s

Omen

Пост 02-Июн-2013 08:13

[Цитировать]

Сад слов / Kotonoha no Niwa / The Garden of WordsКомпозитор: KASHIWA Daisuke
Год выпуска: 2013 г.
Страна: Япония
Аудио кодек: FLAC (*.flac)
Тип рипа: image+.cue
Битрейт аудио: lossless
Продолжительность: 00:41:45
Наличие сканов в содержимом раздачи: да

The Garden of Words OST

Треклист:
01 A Rainy Morning ~Main Title~
02 Greenery Rain
03 Rain Of Recollection
04 While Hearing Sound Of Rain
05 A Silent Summer
06 The Afternoon Of Rainy day
07 A Rainy Morning ~Epilogue~

Лог создания рипа

Exact Audio Copy V1.0 beta 3 from 29. August 2011
EAC extraction logfile from 31. May 2013, 10:09
KASHIWA Daisuke / 言の葉の庭 オリジナル サウンドトラック
Used drive : PIONEER DVD-RW DVR-220L Adapter: 1 ID: 0
Read mode : Secure
Utilize accurate stream : Yes
Defeat audio cache : Yes
Make use of C2 pointers : No
Read offset correction : 6
Overread into Lead-In and Lead-Out : No
Fill up missing offset samples with silence : Yes
Delete leading and trailing silent blocks : No
Null samples used in CRC calculations : Yes
Used interface : Native Win32 interface for Win NT & 2000
Used output format : Internal WAV Routines
Sample format : 44.100 Hz; 16 Bit; Stereo
TOC of the extracted CD
Track | Start | Length | Start sector | End sector
---------------------------------------------------------
1 | 0:00.00 | 0:50.36 | 0 | 3785
2 | 0:50.36 | 3:01.19 | 3786 | 17379
3 | 3:51.55 | 1:08.33 | 17380 | 22512
4 | 5:00.13 | 1:43.16 | 22513 | 30253
5 | 6:43.29 | 4:08.73 | 30254 | 48926
6 | 10:52.27 | 3:06.03 | 48927 | 62879
7 | 13:58.30 | 0:45.30 | 62880 | 66284
Range status and errors
Selected range
Filename J:\Encoded\言の葉の庭 オリジナル・サウンドトラック.wav
Peak level 99.2 %
Extraction speed 5.1 X
Range quality 99.9 %
Copy CRC AFDA596D
Copy OK
No errors occurred
AccurateRip summary
Track 1 not present in database
Track 2 not present in database
Track 3 not present in database
Track 4 not present in database
Track 5 not present in database
Track 6 not present in database
Track 7 not present in database
None of the tracks are present in the AccurateRip database
End of status report
---- CUETools DB Plugin V2.1.3
[CTDB TOCID: Zq0bn5M9l4.7WN5L6dX4hftOsAo-] disk not present in database, Submit result: Zq0bn5M9l4.7WN5L6dX4hftOsAo- has been uploaded
==== Log checksum 25248900F5D34D37F495C4B6876661803B681A00A7FD36CD31DB234165805C10 ====

Kotonoha ED Single

Треклист:
01 Kotonoha
02 Rain
03 Girl (Tomita Lab. Remix)
04 Kotonoha (Backing Track)
05 Rain (Long Ver.)

Лог создания рипа

Exact Audio Copy V1.0 beta 3 from 29. August 2011
EAC extraction logfile from 28. May 2013, 14:07
秦基博 / 言ノ葉+GREEN MIND 2012
Used drive : Optiarc BD RW BD-5740H Adapter: 0 ID: 0
www.astost.comMGRT Share&Encoded by nalanchen@Act_yego
Read mode : SecureUtilize accurate stream : YesDefeat audio cache : YesMake use of C2 pointers : No
Read offset correction : 48Overread into Lead-In and Lead-Out : NoFill up missing offset samples with silence : YesDelete leading and trailing silent blocks : NoNull samples used in CRC calculations : YesUsed interface : Native Win32 interface for Win NT & 2000
Used output format : Internal WAV RoutinesSample format : 44.100 Hz; 16 Bit; Stereo
TOC of the extracted CD
Track | Start | Length | Start sector | End sector --------------------------------------------------------- 1 | 0:00.00 | 5:04.24 | 0 | 22823 2 | 5:04.24 | 4:53.03 | 22824 | 44801 3 | 9:57.27 | 4:28.00 | 44802 | 64901 4 | 14:25.27 | 5:09.31 | 64902 | 88107 5 | 19:34.58 | 7:27.23 | 88108 | 121655
Range status and errors
Selected range
Filename J:\Encoded\言ノ葉+GREEN MIND 2012\秦基博 - 言ノ葉+GREEN MIND 2012.wav
Peak level 100.0 % Extraction speed 13.1 X Range quality 100.0 % Copy CRC E1A168FA Copy OK
No errors occurred
End of status report
---- CUETools DB Plugin V2.1.3
[CTDB TOCID: qCTP.d9NFJDehkhMbx7pywypByw-] disk not present in database, Submit result: qCTP.d9NFJDehkhMbx7pywypByw- has been uploaded
==== Log checksum 91BC0AA62ABFACE5E3A22B1496851934F93A59DB0B7FABE49DABFDD286BBD344 ====

Dracula

Пост 28-Май-2013 10:14

[Цитировать]

Топик был перенесен из форума Философия и религия в форум Anime


kogesan

UndegraundMen

Пост 28-Май-2013 00:06

[Цитировать]

VA - Happy Feet (2006)- Год: 2006
Жанр: Soundtrack
Продолжительность: 00:47:53
Кодек: FLAC
Битрейт: Lossless
Тип рипа: image+.cue
Треклист:
01. Prince - The Song Of The Heart [00:04:35]
02. Gia Farrell - Hit Me Up [00:03:16]
03. Pink - Tell Me Something Good [00:03:10]
04. Brittany Murphy - Somebody To Love [00:03:47]
05. Patti LaBelle, Yolanda Adams & Fantasia Barrino - I Wish [00:03:31]
06. The Brand New Heavies (featuring Jamalski) - Jump'n'move [00:03:22]
07. The Beach Boys - Do It Again [00:02:26]
08. THE JOKER Jason Mraz mash-up with Chrissie Hynde - Everything I Own [00:04:05]
09. Robin Williams - My Way (A Mi Manera) [00:01:44]
10. KISS Nicole Kidman mash-up with Hugh Jackman - Heartbreak Hotel [00:02:36]
11. Brittany Murphy - Boogie Wonderland [00:05:09]
12. K. D. Lang - Golden Slumbers \ The End [00:04:16]
13. John Powell - The Story Of Mumble Happyfeet [00:05:50]

Отчёт EAC

Код:
Exact Audio Copy V0.99 prebeta 5 from 4. May 2009
Отчёт EAC об извлечении, выполненном 14. августа 2009, 10:43
Va / OST Happy Feet
Дисковод: Optiarc DVD RW AD-7200A   Adapter: 0  ID: 0
Режим чтения                 : Достоверность
Использование точного потока : Да
Отключение кэша аудио        : Да
Использование указателей C2  : Нет
Коррекция смещения при чтении                     : 48
Способность читать области Lead-in и Lead-out     : Нет
Заполнение пропущенных сэмплов тишиной            : Да
Удаление блоков с тишиной в начале и конце        : Нет
При вычислениях CRC использовались нулевые сэмплы : Да
Интерфейс                                         : Встроенный Win32-интерфейс для Win NT/2000
Выходной формат : Внутренние WAV-операции
Формат сэмплов  : 44.100 Гц; 16 бит; стерео
TOC извлечённого CD
     Трек |   Старт  | Длительность | Начальный сектор | Конечный сектор
    ---------------------------------------------------------------------
       1  |  0:00.00 |    4:35.41   |           0      |      20665
       2  |  4:35.41 |    3:16.29   |       20666      |      35394
       3  |  7:51.70 |    3:10.39   |       35395      |      49683
       4  | 11:02.34 |    3:47.05   |       49684      |      66713
       5  | 14:49.39 |    3:31.44   |       66714      |      82582
       6  | 18:21.08 |    3:22.09   |       82583      |      97741
       7  | 21:43.17 |    2:26.60   |       97742      |     108751
       8  | 24:10.02 |    4:05.47   |      108752      |     127173
       9  | 28:15.49 |    1:44.43   |      127174      |     135016
      10  | 30:00.17 |    2:36.30   |      135017      |     146746
      11  | 32:36.47 |    5:09.70   |      146747      |     169991
      12  | 37:46.42 |    4:16.09   |      169992      |     189200
      13  | 42:02.51 |    5:50.62   |      189201      |     215512
Характеристики диапазона извлечения и сообщения об ошибках
Выбранный диапазон
     Имя файла C:\Documents and Settings\Владимир\Рабочий стол\Va - OST Happy Feet.wav
     Пиковый уровень 99.8 %
     Качество диапазона 100.0 %
     CRC копии 9838B6B9
     Копирование... OK
Ошибок не произошло
Конец отчёта

Отчёт auCDtect Task manager:

Код:
-----------------------
DON'T MODIFY THIS FILE
-----------------------
PERFORMER: auCDtect Task Manager, ver. 1.6.0 RC1 build 1.6.0.1
Copyright (c) 2008-2010 y-soft. All rights reserved
http://y-soft.org
ANALYZER: auCDtect: CD records authenticity detector, version 0.8.2
Copyright (c) 2004 Oleg Berngardt. All rights reserved.
Copyright (c) 2004 Alexander Djourik. All rights reserved.
FILE: Va - OST Happy Feet.flac
  Size: 359663699 Hash: BCFD405FFA65ACF955799C23551AC416 Accuracy: -m0
  Conclusion: CDDA 100%
  Signature: 3C349154E686EDF8ABADB7A7E25D64DE1B797FE0
Благодарность: masterovmetalВремя раздачи: 24/7

Dracula

Пост 28-Май-2013 07:32

[Цитировать]

Топик был перенесен из форума Movies в форум Anime


p2000s

Omen

Пост 28-Май-2013 01:31

[Цитировать]

Zetsuen no Tempest: The Civilization Blaster- -Название альбома: [4 CD]
Год выпуска: 2012 г.
Страна: Япония
Аудио кодек: FLAC (*.flac)
Тип рипа: image+.cue
Битрейт аудио: lossless
Продолжительность: 00:50:18
Наличие сканов в содержимом раздачи: да

OP Single - Spirit Inspiration

Год выпуска: 28.11.2012
Исполнитель: Nothing's Carved In Stone
Продолжительность: 05:55
Трэклист:
01 - Spirit Inspiration
02 - Spirit Inspiration (Anime version)

EAC log

Exact Audio Copy V1.0 beta 3 from 29. August 2011
EAC extraction logfile from 9. January 2013, 22:47
Nothing's Carved In Stone / Spirit Inspiration [期間生産限定アニメ盤]
Used drive : PIONEER DVD-RW DVR-107D Adapter: 3 ID: 0
Read mode : SecureUtilize accurate stream : YesDefeat audio cache : YesMake use of C2 pointers : No
Read offset correction : 18Overread into Lead-In and Lead-Out : YesFill up missing offset samples with silence : YesDelete leading and trailing silent blocks : NoNull samples used in CRC calculations : YesUsed interface : Native Win32 interface for Win NT & 2000
Used output format : Internal WAV RoutinesSample format : 44.100 Hz; 16 Bit; Stereo
TOC of the extracted CD
Track | Start | Length | Start sector | End sector --------------------------------------------------------- 1 | 0:00.00 | 4:23.00 | 0 | 19724 2 | 4:23.00 | 1:32.27 | 19725 | 26651
Range status and errors
Selected range
Filename H:\Working_Folder\[EAC][121128] TVアニメ 絶園のテンペスト OP 「Spirit Inspiration」/Nothing's Carved In Stone [期間生産限定アニメ盤] (ape+cue+log+png)\01.wav
Peak level 99.8 % Extraction speed 4.6 X Range quality 100.0 % Copy CRC 444D7AD2 Copy OK
No errors occurred
End of status report
==== Log checksum 94FF0946055D5DC3D7D53764D8D8EEE6EE7AE49B7604627D56CD55D72204B0DC ====

ED Single - Happy endings

Год выпуска: 24.10.2012
Исполнитель: Kana Hanazawa
Продолжительность: 17:45
Трэклист:
01 - Happy endings
02 - Too late for chocolate
03 - Trick or treat!
04 - Happy endings (Instrumental)

Audiochecker log

AUDIOCHECKER v2.0 beta (build 457) - by Dester - opdester@freemail.hu~~~~~~~~~~~~~~~~~~~~~~~~~~~~~~~~~~
Started at: âòîðíèê, 28. 05. 2013. - 1:14.344 files found
1 -===- T:\uTorrent files\Mine\Zetsuen no Tempest OST\ED1 Single - Happy Endings\01 Happy Endings.flac Extracted successfully Conclusion: this track is CDDA with probability 100% Tempfile successfully deleted.
2 -===- T:\uTorrent files\Mine\Zetsuen no Tempest OST\ED1 Single - Happy Endings\02 Too Late For Chocolate.flac Extracted successfully Conclusion: this track is CDDA with probability 100% Tempfile successfully deleted.
3 -===- T:\uTorrent files\Mine\Zetsuen no Tempest OST\ED1 Single - Happy Endings\03 Trick Or Treat!.flac Extracted successfully Conclusion: this track is CDDA with probability 100% Tempfile successfully deleted.
4 -===- T:\uTorrent files\Mine\Zetsuen no Tempest OST\ED1 Single - Happy Endings\04 Happy Endings (Instrumental).flac Extracted successfully Conclusion: this track is CDDA with probability 99% Tempfile successfully deleted.
Finished at: âòîðíèê, 28. 05. 2013. - 1:15.20 (operation time: 0:00.46)

OP2 Single - Daisuki nano ni

Год выпуска: 13.02.2013
Исполнитель: Kylee
Продолжительность: 14:23
Трэклист:
01 - Daisuki nano ni
02 - Anywhere
03 - Daisuki nano ni (TV size)
04 - Daisuki nano ni (Less vocal)

Audiochecker log

AUDIOCHECKER v2.0 beta (build 457) - by Dester - opdester@freemail.hu~~~~~~~~~~~~~~~~~~~~~~~~~~~~~~~~~~
Started at: âòîðíèê, 28. 05. 2013. - 1:12.214 files found
1 -===- T:\uTorrent files\Mine\Zetsuen no Tempest OST\OP2 Single - Daisuki Nano Ni\01 Daisuki na no ni.flac Extracted successfully Conclusion: this track is CDDA with probability 100% Tempfile successfully deleted.
2 -===- T:\uTorrent files\Mine\Zetsuen no Tempest OST\OP2 Single - Daisuki Nano Ni\02 Anywhere.flac Extracted successfully Conclusion: this track is CDDA with probability 99% Tempfile successfully deleted.
3 -===- T:\uTorrent files\Mine\Zetsuen no Tempest OST\OP2 Single - Daisuki Nano Ni\03 Daisuki na no ni [Anime Edit].flac Extracted successfully Conclusion: this track is CDDA with probability 100% Tempfile successfully deleted.
4 -===- T:\uTorrent files\Mine\Zetsuen no Tempest OST\OP2 Single - Daisuki Nano Ni\04 Daisuki na no ni [Less Vocal].flac Extracted successfully Conclusion: this track is CDDA with probability 100% Tempfile successfully deleted.
Finished at: âòîðíèê, 28. 05. 2013. - 1:13.00 (operation time: 0:00.38)

ED2 Single - Bokutachi no Uta

Год выпуска: 30.01.2013
Исполнитель: Tomohisa Sako
Продолжительность: 12:14
Трэклист:
01 - Bokutachi no Uta
02 - Bokutachi no Uta ~Anime ver.~
03 - Bokutachi no Uta ~Off Vocal~

Audiochecker log

AUDIOCHECKER v2.0 beta (build 457) - by Dester - opdester@freemail.hu~~~~~~~~~~~~~~~~~~~~~~~~~~~~~~~~~~
Started at: âòîðíèê, 28. 05. 2013. - 1:15.533 files found
1 -===- T:\uTorrent files\Mine\Zetsuen no Tempest OST\ED2 Single - Bokutachi no Uta\01 Bokutachi no Uta.flac Extracted successfully Conclusion: this track is CDDA with probability 100% Tempfile successfully deleted.
2 -===- T:\uTorrent files\Mine\Zetsuen no Tempest OST\ED2 Single - Bokutachi no Uta\02 Bokutachi no Uta ~Anime Size ver.~.flac Extracted successfully Conclusion: this track is CDDA with probability 100% Tempfile successfully deleted.
3 -===- T:\uTorrent files\Mine\Zetsuen no Tempest OST\ED2 Single - Bokutachi no Uta\03 Bokutachi no Uta ~Off Vocal~.flac Extracted successfully Conclusion: this track is CDDA with probability 99% Tempfile successfully deleted.
Finished at: âòîðíèê, 28. 05. 2013. - 1:16.27 (operation time: 0:00.33)

Dracula

Пост 25-Май-2013 08:42

[Цитировать]

Топик был перенесен из форума Movies в форум Anime


p2000s

Dracula

Пост 25-Май-2013 08:42

[Цитировать]

Топик был перенесен из форума Movies в форум Anime


p2000s

Dracula

Пост 25-Май-2013 08:11

[Цитировать]

Топик был перенесен из форума Movies в форум Anime


p2000s

Dracula

Пост 25-Май-2013 08:11

[Цитировать]

Топик был перенесен из форума Movies в форум Anime


p2000s
 

Текущее время: Сегодня 21:17

Часовой пояс: GMT + 3