Сегодня идет свободное скачивание без начисления Download

Результатов поиска: 24

Автор Сообщение

Theseus

Пост 31-Янв-2017 21:56

[Цитировать]

Enigma - The Fall Of A Rebel Angel-
Жанр: New Age, Ambient, Electronic
Год выпуска: 2016
Производитель: Japan
Label: Universal Music
Номер по каталогу: UICY-15589
Аудио кодек: FLAC (*.flac)
Тип рипа: image+.cue
Битрейт аудио: Lossless
Продолжительность: 00:49:15-Треклист:
01 Circle Eight (Feat. Nanuk) 2:18
02 The Omega Point 5:39
03 Diving 2:52
04 The Die Is Cast (Feat. Mark Josher) 4:17
05 Mother (Feat. Anggun) 3:38
06 Agnus Dei 3:58
07 Sadeness (Part II) (Feat. Anggun) 4:09
08 Lost in Nothingness 3:21
09 Oxygen Red (Feat. Anggun) 4:02
10 Confession of the Mind 3:48
11 Absolvo 2:02
12 Amen (Feat. Aquilo) 4:55
13 Sadeness (Part I) 4:18
14 Return To Innocence 4:08

Лог проверки качества

Exact Audio Copy V1.0 beta 3 from 29. August 2011
EAC extraction logfile from 15. November 2016, 15:26
Enigma / Fall of a Rebel Angel
Used drive : ASUS DRW-24B1ST Adapter: 0 ID: 0
Read mode : Secure
Utilize accurate stream : Yes
Defeat audio cache : Yes
Make use of C2 pointers : No
Read offset correction : 6
Overread into Lead-In and Lead-Out : No
Fill up missing offset samples with silence : Yes
Delete leading and trailing silent blocks : No
Null samples used in CRC calculations : Yes
Used interface : Native Win32 interface for Win NT & 2000
Used output format : User Defined Encoder
Selected bitrate : 1024 kBit/s
Quality : High
Add ID3 tag : Yes
Command line compressor : C:\Program Files (x86)\FLAC\flac.exe
TOC of the extracted CD
Track | Start | Length | Start sector | End sector
---------------------------------------------------------
1 | 0:00.00 | 2:18.16 | 0 | 10365
2 | 2:18.16 | 5:39.34 | 10366 | 35824
3 | 7:57.50 | 2:52.00 | 35825 | 48724
4 | 10:49.50 | 4:16.62 | 48725 | 67986
5 | 15:06.37 | 3:38.13 | 67987 | 84349
6 | 18:44.50 | 3:57.44 | 84350 | 102168
7 | 22:42.19 | 4:08.55 | 102169 | 120823
8 | 26:50.74 | 3:20.51 | 120824 | 135874
9 | 30:11.50 | 4:02.27 | 135875 | 154051
10 | 34:14.02 | 3:47.48 | 154052 | 171124
11 | 38:01.50 | 2:01.39 | 171125 | 180238
12 | 40:03.14 | 4:55.03 | 180239 | 202366
13 | 44:58.17 | 4:17.48 | 202367 | 221689
14 | 49:15.65 | 4:08.22 | 221690 | 240311
Range status and errors
Selected range
Filename S:\Enigma - Fall of a Rebel Angel [Japan]\Enigma - Fall of a Rebel Angel.wav
Peak level 99.0 %
Extraction speed 5.7 X
Range quality 99.9 %
Test CRC 8A28387A
Copy CRC 8A28387A
Copy OK
No errors occurred
AccurateRip summary
Track 1 not present in database
Track 2 not present in database
Track 3 not present in database
Track 4 not present in database
Track 5 not present in database
Track 6 not present in database
Track 7 not present in database
Track 8 not present in database
Track 9 not present in database
Track 10 not present in database
Track 11 not present in database
Track 12 not present in database
Track 13 not present in database
Track 14 not present in database
None of the tracks are present in the AccurateRip database
End of status report

Дополнительная информация:

Состав:
Performed by Enigma
Vocals: Nanuk (1), Mark Josher (4), Anggun (5, 7, 9), Aquilo (12)
Composed by Michael Cretu
Story by Michael Kunze
Produced by Michael Cretu
Engineered & Mixed by Michael Cretu
Original Paintings: Wolfgang Beltracchi
Artwork: Büro Dirk Rudolph Об альбоме и исполнителе:
The Fall Of A Rebel Angel (Падение Восставшего Ангела) - восьмой студийный альбом немецкого музыкального проекта Enigma, релиза которого состоялся 11 ноября 2016 года на лейбле Republic Records. Первый студийный альбом после Seven Lives Many Faces (2008), концептуальный альбом, который рассказывает историю, разработанную основателем Enigma, продюсером и главным композитором Мишелем Крету (Michael Cretu) в соавторстве с немецким поэтом и либреттистом Михаэлем Кунце (Michael Kunze) о путешествии героя, находящегося в поиске новой полноценной жизни. Обложка разработана немецким художником Вольфгангом Бельтраччи (Wolfgang Beltracchi), который также создал 12 изображений, сопровождающие каждую из «глав» альбома. Для записи альбома были приглашены четыре музыканта: бразильский певец и композитор Mark Josher, индонезийская певица Анггун (Anggun), Нанук (Nanuk) как женский голос в Circle Eight и английский электро-поп дуэт Aquilo.
"Падение Восставшего Ангела" рассказывает историю обо всех и каждом. Ваш "герой" - это человек, такой же, как вы и я. В один день для него все изменилось. Он чувствует, что за ним наблюдают. Он напуган и не знает, что делать. Кажется, будто жизнь пошла наперекосяк. Направляясь в вымышленный город, он проделывает вещи, которые приводят к изменениям. Он встречает жрицу, чей Бог - Маркиз де Сад - продолжение легендарной композиции "Sadeness (Part I)" из первого альбома "Энигмы". Беспокойные дальнейшие блуждания помогают ему осознать, что сексуальность не имеет ничего общего с удачей, вера более не живет в храмах, а в смерти нет ничего ужасающего. Чтобы получить эти знания, он черпает силы и отрекается от бездеятельности. Он уничтожает свое отражение в воде озера и принимает ответственность за свою жизнь.
Чтобы рассказать эту историю, музыка Мишеля Крету вызывает в воображении детские мечты, визуальные изображения и обращается к воспоминаниям. Цитируя религию, литературу и популярную культуру, музыка ведет нас через разноцветный лабиринт подсознания в поиске личности и безопасности в этом холодном, опасном и безразличном к индивидуальности мире. Этот альбом звучит как отдаленный плач о любви.
The Fall Of A Rebel Angel - это музыкальная притча о человеческой жизни. Изображения с использованием 12 тонов основаны на эпичной поэме писателя и сценариста Михаэля Кунце, которая включена в альбом. Они дополнены 12 картинами Вольфганга Белтракки, гениального художника, который был вынужден стать искусным фальшивомонетчиком, прежде чем заслужил признание своих способностей.
Альбом доступен в четырёх изданиях, выпущенных Republic Records, подразделением Universal Music Group:
- cтандартное издание на одном диске включает 28-страничный буклет и 12 иллюстраций «глав» Бельтраччи,
- в двухдисковом подарочном издании в диджипаке содержится 12 треков с рассказом об истории альбома и 40-страничный буклет,
- лимитированное супер-делюкс издание включает в себя подписанную фоторамку и эксклюзивный онлайн-контент,
- на разворотном виниле напечатаны 12 иллюстраций Бельтраччи и прилагается 16-страничный буклет.
Enigma - немецкий электронный музыкальный проект, основанный румынским музыкантом Мишелем Крету, Дэвидом Фэйрштейном и Фрэнком Петерсоном в 1990 году. После некоторых сольных проектов Мишель Крету начал записывать первый альбом «Enigma» «MCMXC н. э.» в 1990 году, прозванный «Вьющийся MC». С хитом 1990 года «Sadness Part I» «Enigma» принесла нью-эйдж восхищение григорианскими песнопениями и старосветской культурой, вышедший сингл был по-своему уникален. На втором альбоме «The Cross of Changes» остались некоторые элементы старой музыки, но нью-эйдж составляющая была на первом плане, и популярным стал хит, который назывался «Return to Innocence» («Возвращение к невиновности»). Третий альбом «Энигмы» был реализован в 1996 году и назывался «Le Roi Est Mort Vive le Roi», он представлял собой музыкальное саммари предыдущих идей. Четвертый альбом «The Screen Behind the Mirror» последовал в начале 2000 года, а три года спустя, в 2003, «Voyageur». Наконец, в 2006 году вышел «A posteriori». Музыка представляла собой буквально межгалактический саунд, основанный на более электронном, трансовом звучании. В 2008 году «Энигма» выпустила седьмой альбом, названный «Seven Lives, Many Faces», состоящий из двенадцати композиций, а также к нему был издан бонус-диск, в который вошло еще 5 треков. Для его создания Крету использовал ультрасовременную мобильную студию "Алхимик". В 2009 году был издан сборник «Платиновая коллекция», куда вошли популярные песни группы, ремиксы этих песен и некоторые оригинальные треки.
- -

Theseus

Пост 13-Ноя-2016 17:22

[Цитировать]

Enigma - The Fall Of A Rebel Angel
(Limited Super Deluxe Edition)

Жанр: New Age, Ambient, Electronic
Год выпуска: 2016
Производитель: Germany
Label: Baloo Music S.A. Island, Universal Music GmbH
Номер по каталогу: 006025 57093490
Аудио кодек: FLAC (*.flac)
Тип рипа: tracks [web]
Битрейт аудио: Lossless
Продолжительность: 01:54:47

CD1

01. Circle Eight (Feat. Nanuk) (02:17)
02. The Omega Point (05:39)
03. Diving (02:52)
04. The Die Is Cast (Feat. Mark Josher) (04:16)
05. Mother (Feat. Anggun) (03:38)
06. Agnus Dei (03:57)
07. Sadeness (Part II) (Feat. Anggun) (04:08)
08. Lost In Nothingness (03:20)
09. Oxygen Red (Feat. Anggun) (04:02)
10. Confession Of The Mind (03:47)
11. Absolvo (02:01)
12. Amen (Feat. Aquilo) (04:52)

CD2

01. The Story Of 'Circle Eight' (01:00)
02. The Story Of 'The Omega Point' (01:49)
03. The Story Of 'Diving' (01:25)
04. The Story Of 'The Die Is Cast' (01:59)
05. The Story Of 'Mother' (02:02)
06. The Story Of 'Agnus Dei' (02:49)
07. The Story Of 'Sadeness (Part II)' (02:37)
08. The Story Of 'Lost in Nothingness' (01:46)
09. The Story Of 'Oxygen Red' (01:55)
10. The Story Of 'Confession Of The Mind' (02:43)
11. The Story Of 'Absolvo' (01:27)
12. The Story Of 'Amen' (01:37)

CD3

01. La Historia De 'Circle Eight' (01:00)
02. La Historia De 'The Omega Point' (01:49)
03. La Historia De 'Diving' (01:25)
04. La Historia De 'The Die Is Cast' (01:59)
05. La Historia De 'Mother' (02:02)
06. La Historia De 'Agnus Dei' (02:49)
07. La Historia De 'Sadeness (Part II)' (02:37)
08. La Historia De 'Lost In Nothingness' (01:46)
09. La Historia De 'Oxygen Red' (01:55)
10. La Historia De 'Confession Of The Mind' (02:43)
11. La Historia De 'Absolvo' (01:27)
12. La Historia De 'Amen' (01:37)

CD4

01. L'Histoire De 'Circle Eight' (01:00)
02. L'Histoire De 'The Omega Point' (01:49)
03. L'Histoire De 'Diving' (01:25)
04. L'Histoire De 'The Die Is Cast' (01:59)
05. L'Histoire De 'Mother' (02:02)
06. L'Histoire De 'Agnus Dei' (02:49)
07. L'Histoire De 'Sadeness (Part II)' (02:37)
08. L'Histoire De 'Lost In Nothingness' (01:46)
09. L'Histoire De 'Oxygen Red' (01:55)
10. L'Histoire De 'Confession Of The Mind' (02:43)
11. L'Histoire De 'Absolvo' (01:27)
12. L'Histoire De 'Amen' (01:38)

Лог проверки качества

Код:
AUDIOCHECKER v2.0 beta (build 457) - by Dester - opdester@freemail.hu
~~~~~~~~~~~~~~~~~~~~~~~~~~~~~~~~~~
Started at: Friday, 11. 11. 2016. - 14:16.04
48 files found
01 -===- W:\Torrents To Upload\RuTracker\Enigma (Albums)\2016 - The Fall Of A Rebel Angel (Limited Super Deluxe Edition)\DISC 1\01. Circle Eight.flac
  Extracted successfully
  Conclusion: this track is CDDA with probability 100%
  Tempfile successfully deleted.
02 -===- W:\Torrents To Upload\RuTracker\Enigma (Albums)\2016 - The Fall Of A Rebel Angel (Limited Super Deluxe Edition)\DISC 1\02. The Omega Point.flac
  Extracted successfully
  Conclusion: this track is CDDA with probability 100%
  Tempfile successfully deleted.
03 -===- W:\Torrents To Upload\RuTracker\Enigma (Albums)\2016 - The Fall Of A Rebel Angel (Limited Super Deluxe Edition)\DISC 1\03. Diving.flac
  Extracted successfully
  Conclusion: this track is CDDA with probability 99%
  Tempfile successfully deleted.
04 -===- W:\Torrents To Upload\RuTracker\Enigma (Albums)\2016 - The Fall Of A Rebel Angel (Limited Super Deluxe Edition)\DISC 1\04. The Die Is Cast.flac
  Extracted successfully
  Conclusion: this track is CDDA with probability 100%
  Tempfile successfully deleted.
05 -===- W:\Torrents To Upload\RuTracker\Enigma (Albums)\2016 - The Fall Of A Rebel Angel (Limited Super Deluxe Edition)\DISC 1\05. Mother.flac
  Extracted successfully
  Conclusion: this track is CDDA with probability 100%
  Tempfile successfully deleted.
06 -===- W:\Torrents To Upload\RuTracker\Enigma (Albums)\2016 - The Fall Of A Rebel Angel (Limited Super Deluxe Edition)\DISC 1\06. Agnus Dei.flac
  Extracted successfully
  Conclusion: this track is CDDA with probability 99%
  Tempfile successfully deleted.
07 -===- W:\Torrents To Upload\RuTracker\Enigma (Albums)\2016 - The Fall Of A Rebel Angel (Limited Super Deluxe Edition)\DISC 1\07. Sadeness (Part II).flac
  Extracted successfully
  Conclusion: this track is CDDA with probability 100%
  Tempfile successfully deleted.
08 -===- W:\Torrents To Upload\RuTracker\Enigma (Albums)\2016 - The Fall Of A Rebel Angel (Limited Super Deluxe Edition)\DISC 1\08. Lost In Nothingness.flac
  Extracted successfully
  Conclusion: this track is CDDA with probability 76%
  Tempfile successfully deleted.
09 -===- W:\Torrents To Upload\RuTracker\Enigma (Albums)\2016 - The Fall Of A Rebel Angel (Limited Super Deluxe Edition)\DISC 1\09. Oxygen Red.flac
  Extracted successfully
  Conclusion: this track is CDDA with probability 86%
  Tempfile successfully deleted.
10 -===- W:\Torrents To Upload\RuTracker\Enigma (Albums)\2016 - The Fall Of A Rebel Angel (Limited Super Deluxe Edition)\DISC 1\10. Confession Of The Mind.flac
  Extracted successfully
  Conclusion: this track is CDDA with probability 100%
  Tempfile successfully deleted.
11 -===- W:\Torrents To Upload\RuTracker\Enigma (Albums)\2016 - The Fall Of A Rebel Angel (Limited Super Deluxe Edition)\DISC 1\11. Absolvo.flac
  Extracted successfully
  Conclusion: this track is CDDA with probability 100%
  Tempfile successfully deleted.
12 -===- W:\Torrents To Upload\RuTracker\Enigma (Albums)\2016 - The Fall Of A Rebel Angel (Limited Super Deluxe Edition)\DISC 1\12. Amen.flac
  Extracted successfully
  Conclusion: this track is CDDA with probability 76%
  Tempfile successfully deleted.
13 -===- W:\Torrents To Upload\RuTracker\Enigma (Albums)\2016 - The Fall Of A Rebel Angel (Limited Super Deluxe Edition)\DISC 2\01. The Story Of 'Circle Eight'.flac
  Extracted successfully
  Conclusion: this track is CDDA with probability 100%
  Tempfile successfully deleted.
14 -===- W:\Torrents To Upload\RuTracker\Enigma (Albums)\2016 - The Fall Of A Rebel Angel (Limited Super Deluxe Edition)\DISC 2\02. The Story of 'The Omega Point'.flac
  Extracted successfully
  Conclusion: this track is CDDA with probability 100%
  Tempfile successfully deleted.
15 -===- W:\Torrents To Upload\RuTracker\Enigma (Albums)\2016 - The Fall Of A Rebel Angel (Limited Super Deluxe Edition)\DISC 2\03. The Story Of 'Diving'.flac
  Extracted successfully
  Conclusion: this track is CDDA with probability 100%
  Tempfile successfully deleted.
16 -===- W:\Torrents To Upload\RuTracker\Enigma (Albums)\2016 - The Fall Of A Rebel Angel (Limited Super Deluxe Edition)\DISC 2\04. The Story Of 'The Die Is Cast'.flac
  Extracted successfully
  Conclusion: this track is CDDA with probability 99%
  Tempfile successfully deleted.
17 -===- W:\Torrents To Upload\RuTracker\Enigma (Albums)\2016 - The Fall Of A Rebel Angel (Limited Super Deluxe Edition)\DISC 2\05. The Story Of 'Mother'.flac
  Extracted successfully
  Conclusion: this track is CDDA with probability 100%
  Tempfile successfully deleted.
18 -===- W:\Torrents To Upload\RuTracker\Enigma (Albums)\2016 - The Fall Of A Rebel Angel (Limited Super Deluxe Edition)\DISC 2\06. The Story of 'Agnus Dei'.flac
  Extracted successfully
  Conclusion: this track is CDDA with probability 100%
  Tempfile successfully deleted.
19 -===- W:\Torrents To Upload\RuTracker\Enigma (Albums)\2016 - The Fall Of A Rebel Angel (Limited Super Deluxe Edition)\DISC 2\07. The Story of 'Sadeness, Pt. II'.flac
  Extracted successfully
  Conclusion: this track is CDDA with probability 100%
  Tempfile successfully deleted.
20 -===- W:\Torrents To Upload\RuTracker\Enigma (Albums)\2016 - The Fall Of A Rebel Angel (Limited Super Deluxe Edition)\DISC 2\08. The Story Of 'Lost In Nothingness'.flac
  Extracted successfully
  Conclusion: this track is CDDA with probability 100%
  Tempfile successfully deleted.
21 -===- W:\Torrents To Upload\RuTracker\Enigma (Albums)\2016 - The Fall Of A Rebel Angel (Limited Super Deluxe Edition)\DISC 2\09. The Story Of 'Oxygen Red'.flac
  Extracted successfully
  Conclusion: this track is CDDA with probability 100%
  Tempfile successfully deleted.
22 -===- W:\Torrents To Upload\RuTracker\Enigma (Albums)\2016 - The Fall Of A Rebel Angel (Limited Super Deluxe Edition)\DISC 2\10. The Story Of 'Confession Of The Mind'.flac
  Extracted successfully
  Conclusion: this track is CDDA with probability 100%
  Tempfile successfully deleted.
23 -===- W:\Torrents To Upload\RuTracker\Enigma (Albums)\2016 - The Fall Of A Rebel Angel (Limited Super Deluxe Edition)\DISC 2\11. The Story Of 'Absolvo'.flac
  Extracted successfully
  Conclusion: this track is CDDA with probability 100%
  Tempfile successfully deleted.
24 -===- W:\Torrents To Upload\RuTracker\Enigma (Albums)\2016 - The Fall Of A Rebel Angel (Limited Super Deluxe Edition)\DISC 2\12. The Story Of 'Amen'.flac
  Extracted successfully
  Conclusion: this track is CDDA with probability 99%
  Tempfile successfully deleted.
25 -===- W:\Torrents To Upload\RuTracker\Enigma (Albums)\2016 - The Fall Of A Rebel Angel (Limited Super Deluxe Edition)\DISC 3\01. La Historia De 'Circle Eight'.flac
  Extracted successfully
  Conclusion: this track is CDDA with probability 100%
  Tempfile successfully deleted.
26 -===- W:\Torrents To Upload\RuTracker\Enigma (Albums)\2016 - The Fall Of A Rebel Angel (Limited Super Deluxe Edition)\DISC 3\02. La Historia De 'The Omega Point'.flac
  Extracted successfully
  Conclusion: this track is CDDA with probability 100%
  Tempfile successfully deleted.
27 -===- W:\Torrents To Upload\RuTracker\Enigma (Albums)\2016 - The Fall Of A Rebel Angel (Limited Super Deluxe Edition)\DISC 3\03. La Historia De 'Diving'.flac
  Extracted successfully
  Conclusion: this track is CDDA with probability 100%
  Tempfile successfully deleted.
28 -===- W:\Torrents To Upload\RuTracker\Enigma (Albums)\2016 - The Fall Of A Rebel Angel (Limited Super Deluxe Edition)\DISC 3\04. La Historia De 'The Die Is Cast'.flac
  Extracted successfully
  Conclusion: this track is CDDA with probability 100%
  Tempfile successfully deleted.
29 -===- W:\Torrents To Upload\RuTracker\Enigma (Albums)\2016 - The Fall Of A Rebel Angel (Limited Super Deluxe Edition)\DISC 3\05. La Historia De 'Mother'.flac
  Extracted successfully
  Conclusion: this track is CDDA with probability 99%
  Tempfile successfully deleted.
30 -===- W:\Torrents To Upload\RuTracker\Enigma (Albums)\2016 - The Fall Of A Rebel Angel (Limited Super Deluxe Edition)\DISC 3\06. La Historia De 'Agnus Dei'.flac
  Extracted successfully
  Conclusion: this track is CDDA with probability 100%
  Tempfile successfully deleted.
31 -===- W:\Torrents To Upload\RuTracker\Enigma (Albums)\2016 - The Fall Of A Rebel Angel (Limited Super Deluxe Edition)\DISC 3\07. La Historia De 'Sadeness (Part II)'.flac
  Extracted successfully
  Conclusion: this track is CDDA with probability 100%
  Tempfile successfully deleted.
32 -===- W:\Torrents To Upload\RuTracker\Enigma (Albums)\2016 - The Fall Of A Rebel Angel (Limited Super Deluxe Edition)\DISC 3\08. La Historia De 'Lost In Nothingness'.flac
  Extracted successfully
  Conclusion: this track is CDDA with probability 99%
  Tempfile successfully deleted.
33 -===- W:\Torrents To Upload\RuTracker\Enigma (Albums)\2016 - The Fall Of A Rebel Angel (Limited Super Deluxe Edition)\DISC 3\09. La Historia De 'Oxygen Red'.flac
  Extracted successfully
  Conclusion: this track is CDDA with probability 100%
  Tempfile successfully deleted.
34 -===- W:\Torrents To Upload\RuTracker\Enigma (Albums)\2016 - The Fall Of A Rebel Angel (Limited Super Deluxe Edition)\DISC 3\10. La Historia De 'Confession Of The Mind'.flac
  Extracted successfully
  Conclusion: this track is CDDA with probability 100%
  Tempfile successfully deleted.
35 -===- W:\Torrents To Upload\RuTracker\Enigma (Albums)\2016 - The Fall Of A Rebel Angel (Limited Super Deluxe Edition)\DISC 3\11. La Historia De 'Absolvo'.flac
  Extracted successfully
  Conclusion: this track is CDDA with probability 100%
  Tempfile successfully deleted.
36 -===- W:\Torrents To Upload\RuTracker\Enigma (Albums)\2016 - The Fall Of A Rebel Angel (Limited Super Deluxe Edition)\DISC 3\12. La Historia De 'Amen'.flac
  Extracted successfully
  Conclusion: this track is CDDA with probability 100%
  Tempfile successfully deleted.
37 -===- W:\Torrents To Upload\RuTracker\Enigma (Albums)\2016 - The Fall Of A Rebel Angel (Limited Super Deluxe Edition)\DISC 4\01. L'Histoire De 'Circle Eight'.flac
  Extracted successfully
  Conclusion: this track is CDDA with probability 100%
  Tempfile successfully deleted.
38 -===- W:\Torrents To Upload\RuTracker\Enigma (Albums)\2016 - The Fall Of A Rebel Angel (Limited Super Deluxe Edition)\DISC 4\02. L'Histoire De 'The Omega Point'.flac
  Extracted successfully
  Conclusion: this track is CDDA with probability 100%
  Tempfile successfully deleted.
39 -===- W:\Torrents To Upload\RuTracker\Enigma (Albums)\2016 - The Fall Of A Rebel Angel (Limited Super Deluxe Edition)\DISC 4\03. L'Histoire De 'Diving'.flac
  Extracted successfully
  Conclusion: this track is CDDA with probability 100%
  Tempfile successfully deleted.
40 -===- W:\Torrents To Upload\RuTracker\Enigma (Albums)\2016 - The Fall Of A Rebel Angel (Limited Super Deluxe Edition)\DISC 4\04. L'Histoire De 'The Die Is Cast'.flac
  Extracted successfully
  Conclusion: this track is CDDA with probability 99%
  Tempfile successfully deleted.
41 -===- W:\Torrents To Upload\RuTracker\Enigma (Albums)\2016 - The Fall Of A Rebel Angel (Limited Super Deluxe Edition)\DISC 4\05. L'Histoire De 'Mother'.flac
  Extracted successfully
  Conclusion: this track is CDDA with probability 100%
  Tempfile successfully deleted.
42 -===- W:\Torrents To Upload\RuTracker\Enigma (Albums)\2016 - The Fall Of A Rebel Angel (Limited Super Deluxe Edition)\DISC 4\06. L'Histoire De 'Agnus Dei'.flac
  Extracted successfully
  Conclusion: this track is CDDA with probability 100%
  Tempfile successfully deleted.
43 -===- W:\Torrents To Upload\RuTracker\Enigma (Albums)\2016 - The Fall Of A Rebel Angel (Limited Super Deluxe Edition)\DISC 4\07. L'Histoire De 'Sadeness (Part II)'.flac
  Extracted successfully
  Conclusion: this track is CDDA with probability 100%
  Tempfile successfully deleted.
44 -===- W:\Torrents To Upload\RuTracker\Enigma (Albums)\2016 - The Fall Of A Rebel Angel (Limited Super Deluxe Edition)\DISC 4\08. L'Histoire De 'Lost In Nothingness'.flac
  Extracted successfully
  Conclusion: this track is CDDA with probability 100%
  Tempfile successfully deleted.
45 -===- W:\Torrents To Upload\RuTracker\Enigma (Albums)\2016 - The Fall Of A Rebel Angel (Limited Super Deluxe Edition)\DISC 4\09. L'Histoire De 'Oxygen Red'.flac
  Extracted successfully
  Conclusion: this track is CDDA with probability 100%
  Tempfile successfully deleted.
46 -===- W:\Torrents To Upload\RuTracker\Enigma (Albums)\2016 - The Fall Of A Rebel Angel (Limited Super Deluxe Edition)\DISC 4\10. L'Histoire De 'Confession Of The Mind'.flac
  Extracted successfully
  Conclusion: this track is CDDA with probability 100%
  Tempfile successfully deleted.
47 -===- W:\Torrents To Upload\RuTracker\Enigma (Albums)\2016 - The Fall Of A Rebel Angel (Limited Super Deluxe Edition)\DISC 4\11. L'Histoire De 'Absolvo'.flac
  Extracted successfully
  Conclusion: this track is CDDA with probability 100%
  Tempfile successfully deleted.
48 -===- W:\Torrents To Upload\RuTracker\Enigma (Albums)\2016 - The Fall Of A Rebel Angel (Limited Super Deluxe Edition)\DISC 4\12. L'Histoire De 'Amen'.flac
  Extracted successfully
  Conclusion: this track is CDDA with probability 100%
  Tempfile successfully deleted.
Finished at: Friday, 11. 11. 2016. - 14:21.51 (operation time: 0:05.46)

Дополнительная информация:

Состав:
Performed by Enigma
Vocals: Nanuk (1), Mark Josher (4), Anggun (5, 7, 9), Aquilo (12)
Composed by Michael Cretu
Story by Michael Kunze
Produced by Michael Cretu
Engineered & Mixed by Michael Cretu
Original Paintings: Wolfgang Beltracchi
Artwork: Büro Dirk Rudolph Об альбоме и исполнителе:
The Fall Of A Rebel Angel (Падение Восставшего Ангела) - восьмой студийный альбом немецкого музыкального проекта Enigma, релиза которого состоялся 11 ноября 2016 года на лейбле Republic Records. Первый студийный альбом после Seven Lives Many Faces (2008), концептуальный альбом, который рассказывает историю, разработанную основателем Enigma, продюсером и главным композитором Мишелем Крету (Michael Cretu) в соавторстве с немецким поэтом и либреттистом Михаэлем Кунце (Michael Kunze) о путешествии героя, находящегося в поиске новой полноценной жизни. Обложка разработана немецким художником Вольфгангом Бельтраччи (Wolfgang Beltracchi), который также создал 12 изображений, сопровождающие каждую из «глав» альбома. Для записи альбома были приглашены четыре музыканта: бразильский певец и композитор Mark Josher, индонезийская певица Анггун (Anggun), Нанук (Nanuk) как женский голос в Circle Eight и английский электро-поп дуэт Aquilo.
"Падение Восставшего Ангела" рассказывает историю обо всех и каждом. Ваш "герой" - это человек, такой же, как вы и я. В один день для него все изменилось. Он чувствует, что за ним наблюдают. Он напуган и не знает, что делать. Кажется, будто жизнь пошла наперекосяк. Направляясь в вымышленный город, он проделывает вещи, которые приводят к изменениям. Он встречает жрицу, чей Бог - Маркиз де Сад - продолжение легендарной композиции "Sadeness (Part I)" из первого альбома "Энигмы". Беспокойные дальнейшие блуждания помогают ему осознать, что сексуальность не имеет ничего общего с удачей, вера более не живет в храмах, а в смерти нет ничего ужасающего. Чтобы получить эти знания, он черпает силы и отрекается от бездеятельности. Он уничтожает свое отражение в воде озера и принимает ответственность за свою жизнь.
Чтобы рассказать эту историю, музыка Мишеля Крету вызывает в воображении детские мечты, визуальные изображения и обращается к воспоминаниям. Цитируя религию, литературу и популярную культуру, музыка ведет нас через разноцветный лабиринт подсознания в поиске личности и безопасности в этом холодном, опасном и безразличном к индивидуальности мире. Этот альбом звучит как отдаленный плач о любви.
The Fall Of A Rebel Angel - это музыкальная притча о человеческой жизни. Изображения с использованием 12 тонов основаны на эпичной поэме писателя и сценариста Михаэля Кунце, которая включена в альбом. Они дополнены 12 картинами Вольфганга Белтракки, гениального художника, который был вынужден стать искусным фальшивомонетчиком, прежде чем заслужил признание своих способностей.
Альбом доступен в четырёх изданиях, выпущенных Republic Records, подразделением Universal Music Group:
- cтандартное издание на одном диске включает 28-страничный буклет и 12 иллюстраций «глав» Бельтраччи,
- в двухдисковом подарочном издании в диджипаке содержится 12 треков с рассказом об истории альбома и 40-страничный буклет,
- лимитированное супер-делюкс издание включает в себя подписанную фоторамку и эксклюзивный онлайн-контент,
- на разворотном виниле напечатаны 12 иллюстраций Бельтраччи и прилагается 16-страничный буклет.
Enigma - немецкий электронный музыкальный проект, основанный румынским музыкантом Мишелем Крету, Дэвидом Фэйрштейном и Фрэнком Петерсоном в 1990 году. После некоторых сольных проектов Мишель Крету начал записывать первый альбом «Enigma» «MCMXC н. э.» в 1990 году, прозванный «Вьющийся MC». С хитом 1990 года «Sadness Part I» «Enigma» принесла нью-эйдж восхищение григорианскими песнопениями и старосветской культурой, вышедший сингл был по-своему уникален. На втором альбоме «The Cross of Changes» остались некоторые элементы старой музыки, но нью-эйдж составляющая была на первом плане, и популярным стал хит, который назывался «Return to Innocence» («Возвращение к невиновности»). Третий альбом «Энигмы» был реализован в 1996 году и назывался «Le Roi Est Mort Vive le Roi», он представлял собой музыкальное саммари предыдущих идей. Четвертый альбом «The Screen Behind the Mirror» последовал в начале 2000 года, а три года спустя, в 2003, «Voyageur». Наконец, в 2006 году вышел «A posteriori». Музыка представляла собой буквально межгалактический саунд, основанный на более электронном, трансовом звучании. В 2008 году «Энигма» выпустила седьмой альбом, названный «Seven Lives, Many Faces», состоящий из двенадцати композиций, а также к нему был издан бонус-диск, в который вошло еще 5 треков. Для его создания Крету использовал ультрасовременную мобильную студию "Алхимик". В 2009 году был издан сборник «Платиновая коллекция», куда вошли популярные песни группы, ремиксы этих песен и некоторые оригинальные треки.
- -

Theseus

Пост 13-Ноя-2016 16:42

[Цитировать]

Enigma - The Fall Of A Rebel Angel- Год: 2016
Жанр: New Age, Enigmatic,Electronic, Ambient
Издание: Decca Classics - 006025 57093490
Источник: Juno Download
Продолжительность: 00:45:03
Кодек: FLAC
Битрейт: Lossless|WEB-DL
Тип раздачи: tracks
Треклист:
01. Circle Eight (feat. Nanuk) (2:17)
02. The Omega Point (5:39)
03. Diving (2:52)
04. The Die Is Cast (feat. Mark Josher) (4:16)
05. Mother (feat. Anggun) (3:38)
06. Agnus Dei (3:57)
07. Sadeness, Pt. II (feat. Anggun) (4:08)
08. Lost In Nothingness (3:20)
09. Oxygen Red (feat. Anggun) (4:02)
10. Confession Of The Mind (3:47)
11. Absolvo (2:01)
12. Amen (feat. Aquilo) (4:52)

Примечание к раздаче

Это стандартный вариант альбома. На делюксовом издании все бонус треки - это короткие спичи на фоне синтезаторного гудения. Каждый на трех языках - английском, французском и испанском. Платить за такой трек могут только ярые фанаты Энигмы. Поэтому, думаю, Deluxe вряд ли представляет интерес для широкой публики. Особенно, если вы не владеете в совершенстве вышеперечисленными языками. Лично мне даже бесплатно прослушать их до конца очень утомительно. Ознакомиться с фрагментами (и сделать выводы) можно по приведенной ссылке на Juno.

Дополнительная информация:

Состав:
Performed by Enigma
Vocals: Nanuk (1), Mark Josher (4), Anggun (5, 7, 9), Aquilo (12)
Composed by Michael Cretu
Story by Michael Kunze
Produced by Michael Cretu
Engineered & Mixed by Michael Cretu
Original Paintings: Wolfgang Beltracchi
Artwork: Büro Dirk Rudolph Об альбоме и исполнителе:
The Fall Of A Rebel Angel (Падение Восставшего Ангела) - восьмой студийный альбом немецкого музыкального проекта Enigma, релиза которого состоялся 11 ноября 2016 года на лейбле Republic Records. Первый студийный альбом после Seven Lives Many Faces (2008), концептуальный альбом, который рассказывает историю, разработанную основателем Enigma, продюсером и главным композитором Мишелем Крету (Michael Cretu) в соавторстве с немецким поэтом и либреттистом Михаэлем Кунце (Michael Kunze) о путешествии героя, находящегося в поиске новой полноценной жизни. Обложка разработана немецким художником Вольфгангом Бельтраччи (Wolfgang Beltracchi), который также создал 12 изображений, сопровождающие каждую из «глав» альбома. Для записи альбома были приглашены четыре музыканта: бразильский певец и композитор Mark Josher, индонезийская певица Анггун (Anggun), Нанук (Nanuk) как женский голос в Circle Eight и английский электро-поп дуэт Aquilo.
"Падение Восставшего Ангела" рассказывает историю обо всех и каждом. Ваш "герой" - это человек, такой же, как вы и я. В один день для него все изменилось. Он чувствует, что за ним наблюдают. Он напуган и не знает, что делать. Кажется, будто жизнь пошла наперекосяк. Направляясь в вымышленный город, он проделывает вещи, которые приводят к изменениям. Он встречает жрицу, чей Бог - Маркиз де Сад - продолжение легендарной композиции "Sadeness (Part I)" из первого альбома "Энигмы". Беспокойные дальнейшие блуждания помогают ему осознать, что сексуальность не имеет ничего общего с удачей, вера более не живет в храмах, а в смерти нет ничего ужасающего. Чтобы получить эти знания, он черпает силы и отрекается от бездеятельности. Он уничтожает свое отражение в воде озера и принимает ответственность за свою жизнь.
Чтобы рассказать эту историю, музыка Мишеля Крету вызывает в воображении детские мечты, визуальные изображения и обращается к воспоминаниям. Цитируя религию, литературу и популярную культуру, музыка ведет нас через разноцветный лабиринт подсознания в поиске личности и безопасности в этом холодном, опасном и безразличном к индивидуальности мире. Этот альбом звучит как отдаленный плач о любви.
The Fall Of A Rebel Angel - это музыкальная притча о человеческой жизни. Изображения с использованием 12 тонов основаны на эпичной поэме писателя и сценариста Михаэля Кунце, которая включена в альбом. Они дополнены 12 картинами Вольфганга Белтракки, гениального художника, который был вынужден стать искусным фальшивомонетчиком, прежде чем заслужил признание своих способностей.
Альбом доступен в четырёх изданиях, выпущенных Republic Records, подразделением Universal Music Group:
- cтандартное издание на одном диске включает 28-страничный буклет и 12 иллюстраций «глав» Бельтраччи,
- в двухдисковом подарочном издании в диджипаке содержится 12 треков с рассказом об истории альбома и 40-страничный буклет,
- лимитированное супер-делюкс издание включает в себя подписанную фоторамку и эксклюзивный онлайн-контент,
- на разворотном виниле напечатаны 12 иллюстраций Бельтраччи и прилагается 16-страничный буклет.
Enigma - немецкий электронный музыкальный проект, основанный румынским музыкантом Мишелем Крету, Дэвидом Фэйрштейном и Фрэнком Петерсоном в 1990 году. После некоторых сольных проектов Мишель Крету начал записывать первый альбом «Enigma» «MCMXC н. э.» в 1990 году, прозванный «Вьющийся MC». С хитом 1990 года «Sadness Part I» «Enigma» принесла нью-эйдж восхищение григорианскими песнопениями и старосветской культурой, вышедший сингл был по-своему уникален. На втором альбоме «The Cross of Changes» остались некоторые элементы старой музыки, но нью-эйдж составляющая была на первом плане, и популярным стал хит, который назывался «Return to Innocence» («Возвращение к невиновности»). Третий альбом «Энигмы» был реализован в 1996 году и назывался «Le Roi Est Mort Vive le Roi», он представлял собой музыкальное саммари предыдущих идей. Четвертый альбом «The Screen Behind the Mirror» последовал в начале 2000 года, а три года спустя, в 2003, «Voyageur». Наконец, в 2006 году вышел «A posteriori». Музыка представляла собой буквально межгалактический саунд, основанный на более электронном, трансовом звучании. В 2008 году «Энигма» выпустила седьмой альбом, названный «Seven Lives, Many Faces», состоящий из двенадцати композиций, а также к нему был издан бонус-диск, в который вошло еще 5 треков. Для его создания Крету использовал ультрасовременную мобильную студию "Алхимик". В 2009 году был издан сборник «Платиновая коллекция», куда вошли популярные песни группы, ремиксы этих песен и некоторые оригинальные треки.

Отчёт auCDtect Task manager:

PERFORMER: auCDtect Task Manager, ver. 1.6.0 RC1 build 1.6.0.1
Copyright (c) 2008-2010 y-soft. All rights reserved
http://y-soft.org
ANALYZER: auCDtect: CD records authenticity detector, version 0.8.2
Copyright (c) 2004 Oleg Berngardt. All rights reserved.
Copyright (c) 2004 Alexander Djourik. All rights reserved.
FILE: 12. Amen (feat. Aquilo).flac
Size: 31597600 Hash: DE6B2D1B0CC72230D87F5331D1761C32 Accuracy: -m0
Conclusion: CDDA 100%
Signature: 1E8FB50821921ADB69D1B12E732E2E9A5B8D1EF8
FILE: 11. Absolvo.flac
Size: 10082595 Hash: 50EA467DB7021404975B1F73F17F7D0A Accuracy: -m0
Conclusion: CDDA 100%
Signature: E7FAEBDE9D1EF27BA2C36ED831F8DEDFFE47FA97
FILE: 10. Confession Of The Mind.flac
Size: 18766823 Hash: 6540AFE57E90842B19D0C03F6565FF1A Accuracy: -m0
Conclusion: CDDA 100%
Signature: F4C0ED7245EC5BE2BB6B82680D0A8433C85F914C
FILE: 09. Oxygen Red (feat. Anggun).flac
Size: 27742637 Hash: 37CD7A465DCB9BE5D5E5ECD648470170 Accuracy: -m0
Conclusion: CDDA 92%
Signature: 01ABEC41BD4D357913B4A6D6C5086D6A3F03F0AE
FILE: 08. Lost In Nothingness.flac
Size: 14453668 Hash: 098BF31EEAFA3A7EB3FD9917122E2070 Accuracy: -m0
Conclusion: CDDA 43%
Signature: BD9447D2A34EF8F8E4E57066F9F75A1814AE3A42
FILE: 07. Sadeness (Part II) (feat. Anggun).flac
Size: 30250212 Hash: DBF044E700C84D07740296DF4DC8A28C Accuracy: -m0
Conclusion: CDDA 100%
Signature: C138ED6ED79066E28B9DF640F406AE1EB164BDCF
FILE: 06. Agnus Dei.flac
Size: 23730006 Hash: B68EF5B3FFF06446455DDA077DE2BA92 Accuracy: -m0
Conclusion: CDDA 100%
Signature: CBC174321DA46A5EC8EA8A10864235FBA81D6C5F
FILE: 05. Mother (feat. Anggun).flac
Size: 21865237 Hash: 201EC6910E9E219F47BF8B883D797755 Accuracy: -m0
Conclusion: CDDA 100%
Signature: C5E195D36D2A2C98249939F23AB5B6B75E677A1A
FILE: 04. The Die Is Cast (feat. Mark Josher).flac
Size: 27351275 Hash: 0373A5C33ADA2E77490A9A7D842C072C Accuracy: -m0
Conclusion: CDDA 100%
Signature: 34E08FF69DF777B3AD75CA262A94BAFF27CC98A8
FILE: 03. Diving.flac
Size: 11774930 Hash: 50FF35E7BD24C2B6C6BC4E09780FD78F Accuracy: -m0
Conclusion: CDDA 85%
Signature: 564057B0250758EB4DFB925B383868B26C50C1A8
FILE: 02. The Omega Point.flac
Size: 34576389 Hash: E49507F445AD8CECF93A525C6DF416B0 Accuracy: -m0
Conclusion: CDDA 100%
Signature: 3CF483E23762446BD839E059F72BC101D498B232
FILE: 01. Circle Eight (feat. Nanuk).flac
Size: 10915712 Hash: 011ED305B76625758829FC37BE52455F Accuracy: -m0
Conclusion: CDDA 100%
Signature: 70842311981D654D892B9316612291632B1F8F84
- -

sashau

Пост 17-Дек-2014 04:19

[Цитировать]

G.E.N.E. - Rain Forest - Год: 1993
Жанр: Electronic, New Age, Ambient
Продолжительность: 01:06:06
Кодек: FLAC
Битрейт: Lossless
Тип рипа: image+.cue
Треклист:
1.Forest Love 4:39
2.Rain Forest 6:15
3.Lovely Blossoms 6:07
4.Warm Welcome 4:36
5.Bird's Paradise 4:32
6.Honey Bees 3:46
7.Ghost Valley 3:14
8.Green To Green 3:32
9.Tropical Grooves 3:57
10.A Soft Sun 3:18
11.Call Of Birds 4:50
12Tropical Trees 5:32
13.Misty Mountain 6:04
14.Days Of Thunder 5:29

Отчёт ЕАС:

Код:
Exact Audio Copy V1.0 beta 3 from 29. August 2011
EAC extraction logfile from 16. December 2014, 22:53
G.E.N.E. - Rain Forest / Rain Forest
Used drive  : PIONEER BD-RW   BDR-207M   Adapter: 2  ID: 0
Read mode               : Secure
Utilize accurate stream : Yes
Defeat audio cache      : Yes
Make use of C2 pointers : No
Read offset correction                      : 667
Overread into Lead-In and Lead-Out          : No
Fill up missing offset samples with silence : Yes
Delete leading and trailing silent blocks   : No
Null samples used in CRC calculations       : Yes
Used interface                              : Native Win32 interface for Win NT & 2000
Used output format              : User Defined Encoder
Selected bitrate                : 1024 kBit/s
Quality                         : High
Add ID3 tag                     : No
Command line compressor         : C:\Program Files (x86)\Exact Audio Copy\FLAC\FLAC.EXE
Additional command line options : -6 -V -T "ARTIST=%artist%" -T "TITLE=%title%" -T "ALBUM=%albumtitle%" -T "DATE=%year%" -T "TRACKNUMBER=%tracknr%" -T "GENRE=%genre%" -T "COMMENT=%comment%" -T "BAND=%albuminterpret%" -T "ALBUMARTIST=%albuminterpret%" -T "COMPOSER=%composer%" %haslyrics%--tag-from-file=LYRICS="%lyricsfile%"%haslyrics% -T "DISCNUMBER=%cdnumber%" -T "TOTALDISCS=%totalcds%" -T "TOTALTRACKS=%numtracks%" %hascover%--picture="%coverfile%"%hascover% %source% -o %dest%
TOC of the extracted CD
     Track |   Start  |  Length  | Start sector | End sector
    ---------------------------------------------------------
        1  |  0:00.00 |  4:40.50 |         0    |    21049
        2  |  4:40.50 |  6:16.25 |     21050    |    49274
        3  | 10:57.00 |  6:08.37 |     49275    |    76911
        4  | 17:05.37 |  4:37.25 |     76912    |    97711
        5  | 21:42.62 |  4:32.13 |     97712    |   118124
        6  | 26:15.00 |  3:47.37 |    118125    |   135186
        7  | 30:02.37 |  3:15.25 |    135187    |   149836
        8  | 33:17.62 |  3:32.38 |    149837    |   165774
        9  | 36:50.25 |  3:58.25 |    165775    |   183649
       10  | 40:48.50 |  3:18.62 |    183650    |   198561
       11  | 44:07.37 |  4:51.13 |    198562    |   220399
       12  | 48:58.50 |  5:33.50 |    220400    |   245424
       13  | 54:32.25 |  6:05.00 |    245425    |   272799
       14  | 60:37.25 |  5:28.50 |    272800    |   297449
Range status and errors
Selected range
     Filename C:\Users\Jean\Music\G.E.N.E. - Rain Forest - Rain Forest.wav
     Peak level 97.2 %
     Extraction speed 7.5 X
     Range quality 100.0 %
     Test CRC C56B80DC
     Copy CRC C56B80DC
     Copy OK
No errors occurred
AccurateRip summary
Track  1  accurately ripped (confidence 2)  [83B0CD28]  (AR v1)
Track  2  accurately ripped (confidence 2)  [684257B5]  (AR v1)
Track  3  accurately ripped (confidence 2)  [0F95D1E0]  (AR v1)
Track  4  accurately ripped (confidence 2)  [DF436C1D]  (AR v1)
Track  5  accurately ripped (confidence 2)  [CEFAEF25]  (AR v1)
Track  6  accurately ripped (confidence 2)  [CD13057D]  (AR v1)
Track  7  accurately ripped (confidence 2)  [76D604CB]  (AR v1)
Track  8  accurately ripped (confidence 2)  [B17CE7DE]  (AR v1)
Track  9  accurately ripped (confidence 2)  [09BC2910]  (AR v1)
Track 10  accurately ripped (confidence 2)  [B34EF9F3]  (AR v1)
Track 11  accurately ripped (confidence 2)  [908A4468]  (AR v1)
Track 12  accurately ripped (confidence 2)  [E86A698D]  (AR v1)
Track 13  accurately ripped (confidence 2)  [BB001674]  (AR v1)
Track 14  accurately ripped (confidence 2)  [2E1A44F8]  (AR v1)
All tracks accurately ripped
End of status report
==== Log checksum 64542E425830E05D14931FC931930B9783F816D9D96669576FB1B5C2BBBBFF81 ====

Отчёт auCDtect Task manager:

Код:
-----------------------
DON'T MODIFY THIS FILE
-----------------------
PERFORMER: auCDtect Task Manager, ver. 1.6.0 RC1 build 1.6.0.1
Copyright (c) 2008-2010 y-soft. All rights reserved
http://y-soft.org
ANALYZER: auCDtect: CD records authenticity detector, version 0.8.2
Copyright (c) 2004 Oleg Berngardt. All rights reserved.
Copyright (c) 2004 Alexander Djourik. All rights reserved.
FILE: G.E.N.E. - Rain Forest - Rain Forest.flac
  Size: 419488798 Hash: 2DF1D9BACD7FBBB9C397F312186859D9 Accuracy: -m0
  Conclusion: CDDA 99%
  Signature: B36100B9927B31749417DA2B7A4D6B67DA5D7C3A
-----------------------
DON'T MODIFY THIS FILE
-----------------------
PERFORMER: auCDtect Task Manager, ver. 1.6.0 RC1 build 1.6.0.1
Copyright (c) 2008-2010 y-soft. All rights reserved
http://y-soft.org
ANALYZER: auCDtect: CD records authenticity detector, version 0.8.2
Copyright (c) 2004 Oleg Berngardt. All rights reserved.
Copyright (c) 2004 Alexander Djourik. All rights reserved.
FILE: G.E.N.E. - Rain Forest - Rain Forest.flac
  Size: 419488798 Hash: 2DF1D9BACD7FBBB9C397F312186859D9 Accuracy: -m0
  Conclusion: CDDA 99%
  Signature: B36100B9927B31749417DA2B7A4D6B67DA5D7C3A

Спектрограмма:

http://i.imgur.com/Zh3wn1C.png

UndegraundMen

Пост 25-Авг-2013 11:00

[Цитировать]

VA - MuviSpace vol.3-10 (2011-2013)- Год: 2011-2013
Жанр: Spacesynth / Electronic
Общая продолжительность: 10:53:41
Кодек: FLAC
Битрейт: Lossless
Тип рипа: tracks
Наличие сканов: Да

Треклист:

Vol.3:

Год выпуска: 2011
Продолжительность: 01:09:22
01. Synth Dimension - Way to New Start
02. Macrocosm - Energetic Ride
03. Galaxy Hunter - Cousteau's Dreams
04. Vocoderion - Saturn 5
05. Cyber People - Void Vision (Original Version)
06. Protonic Storm - Saturn Dawn
07. Electron - The Victory
08. Cyber Space - Que me Pasa (Cover Version)
09. Space Project - Alien Voices
10. Galactic Warriors - Lost World
11. Dreamtime - New Horizons
12. Synthesis - Through The Stars

Vol.4:

Год выпуска: 2012
Продолжительность: 01:08:45
01. Sonar Power - Mode Of Life
02. Tom Lacy - Space Highway
03. Reubino - Heart Racer
04. Hypnotix - Orion 1
05. Anosphere - Planet Warrior
06. Daylight - Antarctica
07. A.M. Samurai - Secret Entrance (Space Sound Records Edit)
08. Ebia - Cosmic Flight (Remix)
09. Space Project - The Return Of Space Raiders (Staffan Ohman Remix)
10. Zoltar - Journey Into The Darkness
11. Koto -Tender Force
12. Marco Rochowski - Game of Love

Vol.5:

Год выпуска: 2012
Продолжительность: 01:10:32
01. Amateras - Change the World (space edit)
02. Fellin - Space Journey
03. Spiral Hands On II Cirdan - Mars Invaders (Org. by Laserdance)
04. Ernesto - Space Force
05. Kebu - Le Carnaval des Etoiles
06. Based on Bass - Space Odyssey (Extended Mix)
07. mindXpander - Smuggler's Guild
08. Cyber Space - Dreams
09. Cyreon - Mars Raider
10. Galaxy Hunter - Space Nation (Instrumental)
11. Marco Rochowski - Discohunter
12. Rygar - Robotic Voice
13. Koto - Phenomenon Choir

Vol.6:

Год выпуска: 2012
Продолжительность: 01:08:14
01. Galactic Warriors - New Vision
02. Marco Rochowski - The Journey
03. Amateras - Minerva
04. Spaceraider - Astral Visions
05. Protonic Storm - Dreamscape
06. Cyreon - Starfall
07. Mulperi - Through Space
08. MindXpander - Star Runner
09. Johan Koskela - Distant Fantasy
10. Humphrey Robertson - Mysterious Games
11. Vocoderion - Intergalactic Race
12. Cyber Space - Flight In The Space

Vol.7:

Год выпуска: 2013
Продолжительность: 01:02:20
01. Italove - No Fear
02. Szmc - Velocity
03. Cyber Space - Star Machine
04. Daylight - Time
05. Neuton Mouse - Night Talk
06. Amateras - Callers
07. Cat's Disco Lab - Cyber Laboratorium
08. Dreamtime - Titan Warriors
09. MindXpander - Mars Invaders
10. Neutron - 3rd Dimension
11. Rygar - Space Raiders
12. Synthesis - Sunbeam

Vol.8:

Год выпуска: 2013
Продолжительность: 01:06:59
01. Tom Lacy - Cosmic Dreamer
02. Cola Verde - Spacionot
03. MarcelDeVan - The world of peace and harmony (Relax Version)
04. Reubino - Astralis
05. Kebu - Just Another Space Odyssey
06. Hypnotix - Pyramids of Thoth
07. A.M. Samurai - Exploration
08. Humprey Robertson - New Feelings
09. Koto - Trans Europe Express
10. Protonic Storm - Above The Zenith
11. Ernesto - Starry Nights
12. Electron - Fight to death

Vol.9:

Год выпуска: 2013
Продолжительность: 01:17:10
01. Vocoderion - The Comeback Of Saturn 5
02. Galactic Warriors - Mars Express
03. Bastiaan de Waard (Defcon8) - Photonsphere
04. Staffan Ohman - Eclipse
05. Synth-Dimension - Light And Laser Impulses
06. Intru.der - Galaxy
07. Daylight - Time To Fly
08. Mirko Hirsch - Let's Go To Tokyo
09. Ernesto - Italomix
10. Mechanical Principle - Bradbury Was Right
11. Amateras - Galaxy Dance
12. Mflex - In The Sand (feat. LMFAO)
13. Bonus [Compilation Preview Mix]

Vol.10: (Time Travel)

Год выпуска: 2013
Продолжительность: 02:50:17
CD 1:
01. Hypnosis - Droid (1984)
02. Cyber People - Void Vision (Original Version) (1985)
03. Music Lab - Play The Game (1986)
04. The Caesar's Dancers - Chinese Bang (Full Power D.J. - Mix) (1987)
05. Michiel Van Der Kuy - Do You Want Me (1988)
06. Koto - Time (1989)
07. Laserdance - Brainstorm (1990)
08. Michiel Van Der Kuy - Watch Me (feat. Claudia.T) (1991)
09. Proxyon - Beyond The Future (1992)
10. Ciber People - Invasion (1993)
11. Trilithon - Timebreaker (1994)
12. Laserdance - Out Of Order (1995)
13. Daylight - Chase (1996)
14. Hypnotix - Northstar (1997)
CD 2:
01. Daylight - Combine Your Mind (2000)
02. Based On Bass - Danger Level (2001)
03. mindXpander - Return To Future Metropolis (2002)
04. Zoltar - Falling Stars (2003)
05. Area 51 - Bionic Man (2004)
06. Macrocosm - Galactic Fighters (2005)
07. Electron - Tides Of Darkness (2006)
08. Cyber Space - Galaxy Fighter (2007)
09. Space Project - The Return Of Space Raiders (2008)
10. Dreamtime - Cosmoflow (2009)
11. Galaxy Hunter - LV-426 Over (2010)
12. Vanello - Stars Dreamers (2011)
13. Synthesis - Endless Orbit (2012)
14. Galactic Warriors - Under Attack (2013)

Отчёты auCDtect Task manager:

Vol.3:

Код:
-----------------------
DON'T MODIFY THIS FILE
-----------------------
PERFORMER: auCDtect Task Manager, ver. 1.5.1RC6 build 1.5.1.7
Copyright (c) 2008-2010 y-soft. All rights reserved
http://y-soft.org
ANALYZER: auCDtect: CD records authenticity detector, version 0.8.2
Copyright (c) 2004 Oleg Berngardt. All rights reserved.
Copyright (c) 2004 Alexander Djourik. All rights reserved.
FILE: 12 - Synthesis - Through The Stars.flac
  Size: 52057885 Hash: CB6FF319AD9B56E4852265C3D449ADEC Accuracy: -m0
  Conclusion: CDDA 100%
  Signature: 8E0E3809DFE51E01E2DB4B986A548E4D2ADDADF6
FILE: 11 - Dreamtime - New Horizons.flac
  Size: 50018863 Hash: 6BF0A4243463FCAAD4D2355F374035DD Accuracy: -m0
  Conclusion: CDDA 100%
  Signature: FEC10D5604983CF9E8CC66B63AABCCD54583C9F8
FILE: 10 - Galactic Warriors - Lost World.flac
  Size: 48355861 Hash: EAE92F164DA6828A684A9CC151E8247D Accuracy: -m0
  Conclusion: CDDA 100%
  Signature: D4036E7EE65A6A651B9252CDAFD11C18E1E87149
FILE: 09 - Space Project - Alien Voices.flac
  Size: 44284025 Hash: A0EAADC5C39B1F0F749115632CAB56ED Accuracy: -m0
  Conclusion: CDDA 100%
  Signature: BEB7CBAAC23F02C5858647A990D354E786C25BAC
FILE: 08 - Cyber Space - Que me Pasa (Cover Version).flac
  Size: 33553634 Hash: 1336E4B83271F8E4947C1C2C93640195 Accuracy: -m0
  Conclusion: CDDA 100%
  Signature: F3A1D7A616511615CF403881A5D39313F6030482
FILE: 07 - Electron - The Victory.flac
  Size: 55951040 Hash: 78A883E46221805F0CD8F5AE290C3223 Accuracy: -m0
  Conclusion: CDDA 100%
  Signature: 5B46148C41D8F8807A0CFE3BF1CDD5C4F843B3D6
FILE: 06 - Protonic Storm - Saturn Dawn.flac
  Size: 50736581 Hash: 64709BF5EDA9070A59383567CD30707F Accuracy: -m0
  Conclusion: CDDA 100%
  Signature: E137575754ADCEC3E22D7E5E5CD76921E401241B
FILE: 05 - Cyber People - Void Vision (Original Version).flac
  Size: 53496768 Hash: 5026B04B69B5824B5F4998A3AD133D00 Accuracy: -m0
  Conclusion: CDDA 99%
  Signature: FA0DBC6B899F18E7F0F07B1C31B16D3081854798
FILE: 04 - Vocoderion - Saturn 5.flac
  Size: 29530376 Hash: 733FAA9707C23AA746A5EEABC1646728 Accuracy: -m0
  Conclusion: CDDA 100%
  Signature: EF83D602FA6B4EBEB12A70C6C56398D9E2926897
FILE: 03 - Galaxy Hunter - Cousteau's Dreams.flac
  Size: 35755128 Hash: 105403DA84AD9885CD3EDC49C9304CBA Accuracy: -m0
  Conclusion: CDDA 100%
  Signature: 51470FB7940903C160D844C6656E5B78379CD3E7
FILE: 02 - Macrocosm - Energetic Ride.flac
  Size: 46234117 Hash: 76BF5CE1FD0BA33EBC27D130937C68FA Accuracy: -m0
  Conclusion: CDDA 99%
  Signature: 5FB4992CD8BDF868C8C7B10DB908D01CE852BB2D
FILE: 01 - Synth Dimension - Way to New Start.flac
  Size: 28480212 Hash: E9805E1759E6ECA7FB22D94A605EE92A Accuracy: -m0
  Conclusion: MPEG 95%
  Signature: E08E3313C5B5619194FAC2D0F70FB2AE50640FFA

Vol.4:

Код:
-----------------------
DON'T MODIFY THIS FILE
-----------------------
PERFORMER: auCDtect Task Manager, ver. 1.5.1RC6 build 1.5.1.7
Copyright (c) 2008-2010 y-soft. All rights reserved
http://y-soft.org
ANALYZER: auCDtect: CD records authenticity detector, version 0.8.2
Copyright (c) 2004 Oleg Berngardt. All rights reserved.
Copyright (c) 2004 Alexander Djourik. All rights reserved.
FILE: 12 - Marco Rochowski - Game of Love.flac
  Size: 45678583 Hash: 7C16EA787C50005055B2930DB91A7154 Accuracy: -m0
  Conclusion: CDDA 99%
  Signature: 248F41CEECAA1388733BCE974D61ABD3B52DDDBC
FILE: 11 - Koto -Tender Force.flac
  Size: 26337510 Hash: A29B7EE8A4424138D0B2D0BD697D332D Accuracy: -m0
  Conclusion: CDDA 86%
  Signature: 053A668B7392E27D3434B5CAB17B3D0FC1E9371F
FILE: 10 - Zoltar - Journey Into The Darkness.flac
  Size: 36261722 Hash: CC333FB99D56AF7E6995427AD8136A34 Accuracy: -m0
  Conclusion: CDDA 100%
  Signature: A6F8C02D5FD66DE027F828DB8DEDD947D8BB3051
FILE: 09 - Space Project - The Return Of Space Raiders (Staffan Ohman Remix).flac
  Size: 48887378 Hash: 6B6F7ADF37369A4B2385A02B9D580F4A Accuracy: -m0
  Conclusion: CDDA 100%
  Signature: 907B8CDC6635D1467A91C13481841A94ECA5A171
FILE: 08 - Ebia - Cosmic Flight (Remix).flac
  Size: 40652292 Hash: 62A3BE35085AF9488EF20140DF33C6BE Accuracy: -m0
  Conclusion: CDDA 86%
  Signature: 368B27BB562F51B973D15AE2BA5550224A9F448E
FILE: 07 - A.M. Samurai - Secret Entrance (Space Sound Records Edit).flac
  Size: 45021388 Hash: 56FC1F295C1EDD0226C16CF2A36522AD Accuracy: -m0
  Conclusion: CDDA 100%
  Signature: 019206F9C1879E3A1E44CA0E90831722D8A4B8E3
FILE: 06 - Daylight - Antarctica.flac
  Size: 42550573 Hash: 74CFEC2BA82ED8DDC6A4A12B7D1FF680 Accuracy: -m0
  Conclusion: CDDA 99%
  Signature: F932EF00A076DBF994C82B752442C09352DA9548
FILE: 05 - Anosphere - Planet Warrior.flac
  Size: 46146099 Hash: 84823428AC82A65CD5F6AD2D37CAF5ED Accuracy: -m0
  Conclusion: CDDA 100%
  Signature: 2457EC5FB36323D36927C08F6943C9721A665FC3
FILE: 04 - Hypnotix - Orion 1.flac
  Size: 30694443 Hash: D691F5D57B4676E00D40FB78256D19E1 Accuracy: -m0
  Conclusion: CDDA 100%
  Signature: 77E96BE6244BECAAE1BC5BCB25EF011B93AFF925
FILE: 03 - Reubino - Heart Racer.flac
  Size: 27936622 Hash: 13E1173A5739E573958143D5A346AB0B Accuracy: -m0
  Conclusion: CDDA 85%
  Signature: 4FBB07517770B5838BBBBFF2363C7ABBCC573AB3
FILE: 02 - Tom Lacy - Space Highway.flac
  Size: 44779165 Hash: D4C5E5A04964CEE0267D67EFA0660A4E Accuracy: -m0
  Conclusion: CDDA 100%
  Signature: 3FD493D1DAAB419A94E8E12A69CE1B9909EAD0F1
FILE: 01 - Sonar Power - Mode Of Life.flac
  Size: 33581161 Hash: 9FF53E2DDC9E36DF781E9AD8ADEA3DD1 Accuracy: -m0
  Conclusion: CDDA 99%
  Signature: 3D0471EC016FA577955224A715266ACC8DC90169

Vol.5:

Код:
-----------------------
DON'T MODIFY THIS FILE
-----------------------
PERFORMER: auCDtect Task Manager, ver. 1.5.1RC6 build 1.5.1.7
Copyright (c) 2008-2010 y-soft. All rights reserved
http://y-soft.org
ANALYZER: auCDtect: CD records authenticity detector, version 0.8.2
Copyright (c) 2004 Oleg Berngardt. All rights reserved.
Copyright (c) 2004 Alexander Djourik. All rights reserved.
FILE: 13 - Koto - Phenomenon Choir.flac
  Size: 39261780 Hash: 44072662442AA64E7F196BCBB735A872 Accuracy: -m0
  Conclusion: CDDA 100%
  Signature: 4E28890C1C4DC894CB3C2E4B6B50CA9C2C280892
FILE: 12 - Rygar - Robotic Voice.flac
  Size: 43126043 Hash: 39257001AE06345A21B8E288F231EA6A Accuracy: -m0
  Conclusion: MPEG 95%
  Signature: 0B403AA078998C2EBF0C1B0D7012147F73C86694
FILE: 11 - Marco Rochowski - Discohunter.flac
  Size: 54790068 Hash: 9817F793798B5437762B3CD2EF56A2C8 Accuracy: -m0
  Conclusion: CDDA 100%
  Signature: 443375DDC419EEAC7295A38DCF6B0D1D9A310E07
FILE: 10 - Galaxy Hunter - Space Nation (Instrumental).flac
  Size: 43019389 Hash: 7EC68AA7D971F7AF09FBC06A2849D22E Accuracy: -m0
  Conclusion: CDDA 100%
  Signature: 5DE2130DB4626FCEF8D0833102797BEC2E2D9F7D
FILE: 09 - Cyreon - Mars Raider.flac
  Size: 47203197 Hash: 002F670A3E8D46D0127C39702CCB5518 Accuracy: -m0
  Conclusion: CDDA 100%
  Signature: 25B1ECC46BC7E61839C334F2FBD23DE51FBDDBB0
FILE: 08 - Cyber Space - Dreams.flac
  Size: 34161603 Hash: 51BCCAE6465F9B3CF8C1FBBF56E213C3 Accuracy: -m0
  Conclusion: CDDA 100%
  Signature: D3E67B815D1EB44C245946DE8070AB1A5DF9AF63
FILE: 06 - Based on Bass - Space Odyssey (Extended Mix).flac
  Size: 40453317 Hash: 3FF63E46861120BF410F80BBFF057F1B Accuracy: -m0
  Conclusion: CDDA 100%
  Signature: A76C22EEDB38A17DBE3CD0CDF760CE07CA21A6DF
FILE: 05 - Kebu - Le Carnaval des Etoiles.flac
  Size: 35483470 Hash: C243A2EA10C0DDF896D9233B8D1B8AB8 Accuracy: -m0
  Conclusion: CDDA 99%
  Signature: 28B0B6177FF4C5AD0992A67ED67CB2B959A59760
FILE: 04 - Ernesto - Space Force.flac
  Size: 42636086 Hash: 7015E325C58AB46501A3B9470D0865F6 Accuracy: -m0
  Conclusion: CDDA 100%
  Signature: 10F15B4CB54D13BC4BE46006CCEB060A8A16D951
FILE: 03 - Spiral Hands On II Cirdan - Mars Invaders (Org. by Laserdance).flac
  Size: 33372905 Hash: 9178611F2104C8545920A2F6D3CF6500 Accuracy: -m0
  Conclusion: MPEG 95%
  Signature: C8A07AC4AE910F74C5454ED1330EC3DE75344EA6
FILE: 02 - Fellin - Space Journey.flac
  Size: 34769152 Hash: 291411B849B1A545BE9E129AEAC7860F Accuracy: -m0
  Conclusion: CDDA 100%
  Signature: F146C0AFB0BA6729127BC42BDAB8D1758B880FBB
FILE: 01 - Amateras - Change the World (space edit).flac
  Size: 54150583 Hash: 3461CE0D826DB10D35255266F9ED6CC3 Accuracy: -m0
  Conclusion: CDDA 100%
  Signature: 9E7B47D7ACF5515DE2EC0CBA8AB3A6DC6C4A8E11

Vol.6:

Код:
-----------------------
DON'T MODIFY THIS FILE
-----------------------
PERFORMER: auCDtect Task Manager, ver. 1.5.1RC6 build 1.5.1.7
Copyright (c) 2008-2010 y-soft. All rights reserved
http://y-soft.org
ANALYZER: auCDtect: CD records authenticity detector, version 0.8.2
Copyright (c) 2004 Oleg Berngardt. All rights reserved.
Copyright (c) 2004 Alexander Djourik. All rights reserved.
FILE: 12 - Cyber Space - Flight In The Space.flac
  Size: 32287556 Hash: 18DAF38ABE09FF292E14C34CF6BEA6E4 Accuracy: -m0
  Conclusion: CDDA 100%
  Signature: 69188C4D7E8A2163F0956D7A82AF6BF57A07896B
FILE: 11 - Vocoderion - Intergalactic Race.flac
  Size: 32240854 Hash: 434DCCD83B98EE6F9DC6E831BBC1AA06 Accuracy: -m0
  Conclusion: CDDA 100%
  Signature: 3AE1E82564AFC0C58B21CF12028D4903031FF1BE
FILE: 10 - Humphrey Robertson - Mysterious Games.flac
  Size: 36325735 Hash: D5AF8FD0219BEDE42CFCB1E8D5556463 Accuracy: -m0
  Conclusion: CDDA 100%
  Signature: E5DBC3E851ED2F33E4B7F6EF7C0F4E34239A1B3D
FILE: 09 - Johan Koskela - Distant Fantasy.flac
  Size: 30186718 Hash: 97AB237CFAFEE28997DAB741FCE38618 Accuracy: -m0
  Conclusion: CDDA 100%
  Signature: 6C0E8D6852870D3E3D541A939502107AFA165333
FILE: 08 - MindXpander - Star Runner.flac
  Size: 53489805 Hash: 85C0091988443C570FD125A72BDCAB76 Accuracy: -m0
  Conclusion: MPEG 95%
  Signature: AD7C290222F0ABD08AE999B93289F0310A7876D2
FILE: 07 - Mulperi - Through Space.flac
  Size: 21712156 Hash: E9119635155FF9CA41935AB05DF177F3 Accuracy: -m0
  Conclusion: CDDA 100%
  Signature: EBCAF35B945812691E3AA351EF5EECC0E1C6E146
FILE: 06 - Cyreon - Starfall.flac
  Size: 45717078 Hash: 9A958D48ABADD8297437D570379C1E2A Accuracy: -m0
  Conclusion: CDDA 100%
  Signature: 26461B4FE08E47E0E7973D681A452A0567D0D4A8
FILE: 04 - Spaceraider - Astral Visions.flac
  Size: 37634439 Hash: B8916C1F542FFCAC1770E0E85A530721 Accuracy: -m0
  Conclusion: CDDA 100%
  Signature: B5C24727D58AB2C7F670F041CC1BA87FD699258E
FILE: 03 - Amateras - Minerva.flac
  Size: 37924792 Hash: D0E47373AA00A800305B739DFE4736FF Accuracy: -m0
  Conclusion: CDDA 100%
  Signature: 3AC9EE2494EC820260E627EACDD62F6D1F4922A7
FILE: 02 - Marco Rochowski - The Journey.flac
  Size: 57322842 Hash: A8626A4663171CAF8DF8E841DDDD94B7 Accuracy: -m0
  Conclusion: CDDA 100%
  Signature: 92DFEE4426277B627D6A9A0FCB87FC7A6F10081B
FILE: 01 - Galactic Warriors - New Vision.flac
  Size: 45864857 Hash: 0D61D424F92C40C2D69BC04DC75FF2FD Accuracy: -m0
  Conclusion: CDDA 100%
  Signature: A8D7852EA86D2FB4185ADBF5558C5D159B0FBF1F

Vol.7:

Код:
-----------------------
DON'T MODIFY THIS FILE
-----------------------
PERFORMER: auCDtect Task Manager, ver. 1.5.1RC6 build 1.5.1.7
Copyright (c) 2008-2010 y-soft. All rights reserved
http://y-soft.org
ANALYZER: auCDtect: CD records authenticity detector, version 0.8.2
Copyright (c) 2004 Oleg Berngardt. All rights reserved.
Copyright (c) 2004 Alexander Djourik. All rights reserved.
FILE: 12 - Synthesis - Sunbeam.flac
  Size: 39691444 Hash: ED6A8A8C4097B5EA5AFF927B082688F5 Accuracy: -m0
  Conclusion: MPEG 79%
  Signature: F508CAEBAFC87005A4C007EE6E27AAF033927401
FILE: 11 - Rygar - Space Raiders.flac
  Size: 42975529 Hash: B2988E480ED6191E860380922BC95E07 Accuracy: -m0
  Conclusion: CDDA 100%
  Signature: 777962C08DE79C769352170DC603FA7507EA1ADC
FILE: 10 - Neutron - 3rd Dimension.flac
  Size: 29412494 Hash: D31711B9796BE2DBD5B1BE822AB01403 Accuracy: -m0
  Conclusion: CDDA 100%
  Signature: DC4FC2BE928B8C10FCF57044C62363CB50FD35C6
FILE: 09 - MindXpander - Mars Invaders.flac
  Size: 40877293 Hash: AC8968C8D178B5BB6AA136B8F77B455A Accuracy: -m0
  Conclusion: CDDA 99%
  Signature: BE6A8FE50E347B713D34AFD005504637A5521102
FILE: 08 - Dreamtime - Titan Warriors.flac
  Size: 54268732 Hash: 37750EDCCFA64F9539958ACBB3274778 Accuracy: -m0
  Conclusion: CDDA 100%
  Signature: 559BF29C4F8CED75A29330937913C819E41690D5
FILE: 07 - Cat's Disco Lab - Cyber Laboratorium.flac
  Size: 52505945 Hash: 77BF094D4611C7A9851326C5F4101D36 Accuracy: -m0
  Conclusion: CDDA 100%
  Signature: A0027E4127F50C3BE8BB73EBD7BADC0D867CF93D
FILE: 06 - Amateras - Callers.flac
  Size: 45117257 Hash: F709A51BB0C175AAC4ADC9F19C1A2705 Accuracy: -m0
  Conclusion: CDDA 100%
  Signature: 084964B8749A75978315A23CABF974969A5397A4
FILE: 05 - Neuton Mouse - Night Talk.flac
  Size: 31293275 Hash: 11E892082E58457B60FF2404A52BFDE3 Accuracy: -m0
  Conclusion: CDDA 94%
  Signature: 02AF8CF1FA01A9323F35CC973E437C7097CAEE93
FILE: 04 - Daylight - Time.flac
  Size: 32918191 Hash: 8AEA9E63917EF5AEA9FB68E343CEBDE1 Accuracy: -m0
  Conclusion: CDDA 100%
  Signature: EAC73D9813690AC0E1C3E6061F61D661D9EF1AAD
FILE: 03 - Cyber Space - Star Machine.flac
  Size: 32499038 Hash: 2F4F15F0D0547CE5953D2FAAC514C18F Accuracy: -m0
  Conclusion: CDDA 100%
  Signature: 3494D8A619E36967FEA7F736FE39FCD3701EED7B
FILE: 02 - Szmc - Velocity.flac
  Size: 43164810 Hash: C8B4A22EEE731712FA8246F97D1A7FD6 Accuracy: -m0
  Conclusion: ???
  Signature: 433EF60AD31BDEA64F650ECCDE6103E4E6089312
FILE: 01 - Italove - No Fear.flac
  Size: 32705720 Hash: 1C9606C0DE9C1FA611A02AC134D05AFF Accuracy: -m0
  Conclusion: CDDA 100%
  Signature: 712CAFD837C24E999943FD21E3F9FFF37DE11887

Vol.8:

Код:
-----------------------
DON'T MODIFY THIS FILE
-----------------------
PERFORMER: auCDtect Task Manager, ver. 1.5.1RC6 build 1.5.1.7
Copyright (c) 2008-2010 y-soft. All rights reserved
http://y-soft.org
ANALYZER: auCDtect: CD records authenticity detector, version 0.8.2
Copyright (c) 2004 Oleg Berngardt. All rights reserved.
Copyright (c) 2004 Alexander Djourik. All rights reserved.
FILE: 12 - Electron - Fight to death.flac
  Size: 44960495 Hash: 39F039C7F33A3DB8742A69A223F61F34 Accuracy: -m0
  Conclusion: CDDA 100%
  Signature: 2EBDF3F1C8674508A4FBD41B704925379A65DD31
FILE: 11 - Ernesto - Starry Nights.flac
  Size: 42976986 Hash: 8F509A67FCA6622A87CD00862C9EA4C2 Accuracy: -m0
  Conclusion: CDDA 100%
  Signature: F55C9947C251031A3E750FAD595C35ED2CF0426F
FILE: 10 - Protonic Storm - Above The Zenith.flac
  Size: 58628729 Hash: 2518007907C8C0713A898E6FC21F3026 Accuracy: -m0
  Conclusion: CDDA 100%
  Signature: F78A4FE1D3504D4753E1EAB867022DA4247F0FBB
FILE: 09 - Koto - Trans Europe Express.flac
  Size: 35511088 Hash: 1025AC6CAAF08DD666092F17BD12A11C Accuracy: -m0
  Conclusion: CDDA 99%
  Signature: 6236FF125C957B9B99364430C75FDF160DFBF599
FILE: 08 - Humprey Robertson - New Feelings.flac
  Size: 47588707 Hash: B0BA3D2FAF75DE9EEA12B0659B66A550 Accuracy: -m0
  Conclusion: CDDA 100%
  Signature: 1F2002FAF1ADB048B1D237821B2E68A68938B9E3
FILE: 07 - A.M. Samurai - Exploration.flac
  Size: 29923970 Hash: 67E8B9EB359246330579EAE223384D19 Accuracy: -m0
  Conclusion: CDDA 100%
  Signature: 05F47B13B214117FD1CF00F191EE5DDEE417B096
FILE: 06 - Hypnotix - Pyramids of Thoth.flac
  Size: 26825724 Hash: 6BF35542867E358617609135A308D612 Accuracy: -m0
  Conclusion: CDDA 100%
  Signature: BDE8C25CAB43625AF1C1E943D9BF3C76964912E2
FILE: 05 - Kebu - Just Another Space Odyssey.flac
  Size: 30092651 Hash: 0714F28504AB90DE96B99644288B3129 Accuracy: -m0
  Conclusion: CDDA 100%
  Signature: C4A024A25A89EAB5C11DC6995C993DD9A5569968
FILE: 03 - MarcelDeVan - The world of peace and harmony (Relax Version).flac
  Size: 33648424 Hash: 263468409181453DAECF6EEDE00AF7B3 Accuracy: -m0
  Conclusion: CDDA 100%
  Signature: 1A50B11986E27C227D5C13BB7AFF29239937240D
FILE: 02 - Cola Verde - Spacionot.flac
  Size: 27309279 Hash: EECB698C908726202CC2DD0B9F512DBE Accuracy: -m0
  Conclusion: CDDA 100%
  Signature: B9DFE059A63EA8427BAAD984CD3EA6F4C32ADD20
FILE: 01 - Tom Lacy - Cosmic Dreamer.flac
  Size: 35378576 Hash: 7FCFDAA5D60A308901C20385F47D68E6 Accuracy: -m0
  Conclusion: CDDA 100%
  Signature: 2AF208754E5AADEBC9167A490E2F257E44DB4F00

Vol.9:

Код:
-----------------------
DON'T MODIFY THIS FILE
-----------------------
PERFORMER: auCDtect Task Manager, ver. 1.5.1RC6 build 1.5.1.7
Copyright (c) 2008-2010 y-soft. All rights reserved
http://y-soft.org
ANALYZER: auCDtect: CD records authenticity detector, version 0.8.2
Copyright (c) 2004 Oleg Berngardt. All rights reserved.
Copyright (c) 2004 Alexander Djourik. All rights reserved.
FILE: 01 - Vocoderion - The Comeback Of Saturn 5.flac
  Size: 26842240 Hash: 00444B452888027EEB712D8D3CB0102F Accuracy: -m0
  Conclusion: CDDA 100%
  Signature: 9C4A7A38FF976FAA9968EA0134738A6E1174F7E8
FILE: 02 - Galactic Warriors - Mars Express.flac
  Size: 45601011 Hash: 090D64B26AC7834191843BB4BD1F7897 Accuracy: -m0
  Conclusion: CDDA 100%
  Signature: FE07644D33C136141EC2BE69F23991ED0B58F252
FILE: 03 - Bastiaan de Waard (Defcon8) - Photonsphere.flac
  Size: 38753511 Hash: 2DCB0CE1DAE3C0D7BDCCBA66DC56C3B9 Accuracy: -m0
  Conclusion: CDDA 100%
  Signature: 71189D3D33131A7070CC8D0603B9345ED20040B2
FILE: 04 - Staffan Ohman - Eclipse.flac
  Size: 29521885 Hash: 2D74C866EF94E02C9BAB0F160F75F4BC Accuracy: -m0
  Conclusion: CDDA 100%
  Signature: 30307845F7C1ACD0D77279F360781AF769C20330
FILE: 05 - Synth-Dimension - Light And Laser Impulses.flac
  Size: 42840586 Hash: 96870825241131C21F4C65ACE1DC1410 Accuracy: -m0
  Conclusion: CDDA 100%
  Signature: 00445DBA44C24CB21D138DFBDB105B0CEBD6D97C
FILE: 06 - Intru.der - Galaxy.flac
  Size: 48386774 Hash: 81CA8445D4758D72601B021C7634F5F5 Accuracy: -m0
  Conclusion: CDDA 100%
  Signature: ECC82CC72B7C1C9AD7823EB9A78AFAA8B54E5908
FILE: 07 - Daylight - Time To Fly.flac
  Size: 34538717 Hash: F54DC2BA9FB3AED0E0A236A88A3E9030 Accuracy: -m0
  Conclusion: CDDA 100%
  Signature: 47E85323DF1B534F20B805E2B33271EADF7DFD3A
FILE: 08 - Mirko Hirsch - Let's Go To Tokyo.flac
  Size: 34537867 Hash: F28AF2A3466268C25FB9CA9865F4C413 Accuracy: -m0
  Conclusion: CDDA 100%
  Signature: 65768C51D85A97C42842B9531FD176DA411ADB0A
FILE: 09 - Ernesto - Italomix.flac
  Size: 44235215 Hash: 275F18134245BBFCFAB2E0D0C9D45452 Accuracy: -m0
  Conclusion: CDDA 100%
  Signature: 4EE84B5AAD5034063E882F757995557E5D3E2C3E
FILE: 10 - Mechanical Principle - Bradbury Was Right.flac
  Size: 31740705 Hash: 551537B0FF48AB5B848672C3C03F9783 Accuracy: -m0
  Conclusion: CDDA 100%
  Signature: 114C0580BF3D1FCDD7E50634F27F85A20373839C
FILE: 11 - Amateras - Galaxy Dance.flac
  Size: 44245004 Hash: FCFB3850352D5DAD27397FAFA539BB2B Accuracy: -m0
  Conclusion: CDDA 100%
  Signature: 6395D8658A19FAD665326CF02406088745E89201
FILE: 12 - Mflex - In The Sand (feat. LMFAO).flac
  Size: 41908368 Hash: 9F5A9489D889FC7A84A9374469D02542 Accuracy: -m0
  Conclusion: CDDA 100%
  Signature: 4C6D8499843A420BD38BE6627B72637B520D61AE
FILE: 13 - Bonus [Compilation Preview Mix].flac
  Size: 130360561 Hash: 6CDA3A54EA328172CB99C48730F61C71 Accuracy: -m0
  Conclusion: CDDA 100%
  Signature: E55FA7BC95A70C8A4C2A4A4F30BC7B2F11E6D90A

Vol.10:

CD 1:

Код:
-----------------------
DON'T MODIFY THIS FILE
-----------------------
PERFORMER: auCDtect Task Manager, ver. 1.5.1RC6 build 1.5.1.7
Copyright (c) 2008-2010 y-soft. All rights reserved
http://y-soft.org
ANALYZER: auCDtect: CD records authenticity detector, version 0.8.2
Copyright (c) 2004 Oleg Berngardt. All rights reserved.
Copyright (c) 2004 Alexander Djourik. All rights reserved.
FILE: 01 - Hypnosis - Droid (1984).flac
  Size: 39321841 Hash: D7494FFF821DE9A68FDF8FF5D3DB04B5 Accuracy: -m0
  Conclusion: CDDA 100%
  Signature: BF44A58DEB65D70E33AB7EE02C616CDD209A4FA7
FILE: 02 - Cyber People - Void Vision (Original Version) (1985).flac
  Size: 53496768 Hash: 5026B04B69B5824B5F4998A3AD133D00 Accuracy: -m0
  Conclusion: CDDA 99%
  Signature: 5D7EB73CAAC8FD05354D14C6737A897074DD44E7
FILE: 03 - Music Lab - Play The Game (1986).flac
  Size: 36789745 Hash: 18D0C3E9F23BED6C416AB2867149ED4C Accuracy: -m0
  Conclusion: CDDA 100%
  Signature: F4F8842C729A317700158AB307EC48A7451EE1C9
FILE: 04 - The Caesar's Dancers - Chinese Bang (Full Power D.J. - Mix) (1987).flac
  Size: 65009481 Hash: 2E6D390E20CE9B0085913BDD585E17E1 Accuracy: -m0
  Conclusion: CDDA 100%
  Signature: 00D9424262F0DD7CAFEC1A87B35C6E1C0FDA7948
FILE: 05 - Michiel Van Der Kuy - Do You Want Me (1988).flac
  Size: 42658138 Hash: 74158A35BA8113A862A660557D951072 Accuracy: -m0
  Conclusion: CDDA 100%
  Signature: 4283BD94574297C347FB0E8661F49913787ECF59
FILE: 06 - Koto - Time (1989).flac
  Size: 43265519 Hash: 8A18C517B3641B6B42831CAF22B52718 Accuracy: -m0
  Conclusion: CDDA 100%
  Signature: F5DB58AFA9D12E2B1BEBEA37A91C4DF95423EABC
FILE: 07 - Laserdance - Brainstorm (1990).flac
  Size: 42483867 Hash: A215952D0D98FA426FD5655D12CEDCF7 Accuracy: -m0
  Conclusion: CDDA 100%
  Signature: 04731078E7A4EBB5ED8F7EFD005EECEAFAF3047B
FILE: 08 - Michiel Van Der Kuy - Watch Me (feat. Claudia.T) (1991).flac
  Size: 47203587 Hash: 87653E6C99FD911F426FD25372F8B59D Accuracy: -m0
  Conclusion: CDDA 100%
  Signature: 99E84E417731EF6152C317E824FB97E7E0231DC5
FILE: 09 - Proxyon - Beyond The Future (1992).flac
  Size: 34078168 Hash: 7CCF772E7CC3D564BB670A680F1B56A8 Accuracy: -m0
  Conclusion: CDDA 100%
  Signature: 2BEF2740EC1687476EDE6BE69CEACA3E2F1784FB
FILE: 10 - Ciber People - Invasion (1993).flac
  Size: 50317643 Hash: 4D24F121D9D05B9B20BB534461135BAB Accuracy: -m0
  Conclusion: CDDA 100%
  Signature: 76572D408EF6657A6310452A604E2E5E688CECFB
FILE: 11 - Trilithon - Timebreaker (1994).flac
  Size: 46672490 Hash: 9D3203439A680A404E65D408F5F8370B Accuracy: -m0
  Conclusion: CDDA 100%
  Signature: BD6F56DEB987E07573E97AD9F24C787C103F21EA
FILE: 12 - Laserdance - Out of Order (1995).flac
  Size: 35662251 Hash: 32A0217DFD7B5C4A7EB5A4790FAB3577 Accuracy: -m0
  Conclusion: CDDA 100%
  Signature: AE24EC458775D9F2B320993121CAA487844777B4
FILE: 13 - Daylight - Chase (1996).flac
  Size: 29886031 Hash: 977BBC0600AA0B30D666DEDAB8BFBF21 Accuracy: -m0
  Conclusion: CDDA 100%
  Signature: A4C842AA51DC3A383E9D9B8EE46AE15BDAD626B8
FILE: 14 - Hypnotix - Northstar (1997).flac
  Size: 45502984 Hash: CDEE971C6FD5AE4003408AD3C3023DE4 Accuracy: -m0
  Conclusion: CDDA 100%
  Signature: 99283DF8904988A082128FCCF02A16AC780B49D9

CD 2:

Код:
-----------------------
DON'T MODIFY THIS FILE
-----------------------
PERFORMER: auCDtect Task Manager, ver. 1.5.1RC6 build 1.5.1.7
Copyright (c) 2008-2010 y-soft. All rights reserved
http://y-soft.org
ANALYZER: auCDtect: CD records authenticity detector, version 0.8.2
Copyright (c) 2004 Oleg Berngardt. All rights reserved.
Copyright (c) 2004 Alexander Djourik. All rights reserved.
FILE: 14 - Galactic Warriors - Under attack (2013).flac
  Size: 40996667 Hash: F27CC71B34629579794A5386C867C008 Accuracy: -m0
  Conclusion: CDDA 100%
  Signature: DDB28A23E6AEFC89EDA4B67A484E4190F69844F4
FILE: 13 - Synthesis - Endless orbit (2012).flac
  Size: 40615310 Hash: 9CE06A7BBD01F21373EC2C3C7BE4EA22 Accuracy: -m0
  Conclusion: CDDA 54%
  Signature: E8196119AFB74C7A6431465AD27C9669BE270732
FILE: 12 - Vanello - Stars Dreamers (2011).flac
  Size: 53493821 Hash: 0048896489209DDF138B0534BDCA3D7F Accuracy: -m0
  Conclusion: CDDA 100%
  Signature: 7A4A28F8527ED411AA7627B2783C6A172B6B85BA
FILE: 11 - Galaxy Hunter - LV-426 Over (2010).flac
  Size: 36656712 Hash: 915D2F932C7995E75580D2E3E04132FB Accuracy: -m0
  Conclusion: CDDA 100%
  Signature: 3DEE1E21DA6E17CD8767E6859A9B4B23BBD77920
FILE: 10 - Dreamtime - Cosmoflow (2009).flac
  Size: 27433916 Hash: A44D6266C855ACCC3FD97C5058C8A615 Accuracy: -m0
  Conclusion: CDDA 100%
  Signature: E0C174C2B7A8A9E23D02E18E67F27ABD56D258F9
FILE: 09 - Space Project - The Return Of Space Raiders (2008).flac
  Size: 55115832 Hash: CDE32BC8FC3CFB0D56C81B5318126D6F Accuracy: -m0
  Conclusion: CDDA 100%
  Signature: 36B58EFF9BD1E3EC09EBFC335E150DB3D52FDD03
FILE: 08 - Cyber Space - Galaxy Fighter (2007).flac
  Size: 43423021 Hash: C07C7489C70568E3F795C4A3D0133A0B Accuracy: -m0
  Conclusion: CDDA 100%
  Signature: A78A28AC8462CC1EE1E53E2F6B7134C4AF3436FD
FILE: 07 - Electron - Tides Of Darkness (2006).flac
  Size: 64688866 Hash: 4F8B87C55130BC331C85A8C563230A3F Accuracy: -m0
  Conclusion: CDDA 100%
  Signature: AE218D59FF802B31C48B45D670ECB0BB28E333E3
FILE: 06 - Macrocosm - Galactic Fighters (2005).flac
  Size: 48818823 Hash: E4CC1219D6698ED9C545E23B707FDFD1 Accuracy: -m0
  Conclusion: CDDA 100%
  Signature: C582F601F1F3CCD86BDC8280DCB58AEEBA478290
FILE: 05 - Area 51 - Bionic Man (2004).flac
  Size: 40300920 Hash: 1775970B6122184ACD0CCC0B5B917511 Accuracy: -m0
  Conclusion: CDDA 100%
  Signature: D94D4671F24C4F1EE38BB68559E8409282D75858
FILE: 04 - Zoltar - Falling Stars (2003).flac
  Size: 47597041 Hash: 59A7F0C521148EA6CA6A81E1EA119C58 Accuracy: -m0
  Conclusion: CDDA 100%
  Signature: FC2DD97EC048147D8EF01A276FB8F5C23D4B05F5
FILE: 03 - mindXpander - Return to Future Metropolis (2002).flac
  Size: 58454643 Hash: 5E20BC2DAA97D51AE819FE966D570D5E Accuracy: -m0
  Conclusion: CDDA 100%
  Signature: 8CF1FF3390E479239FC99C279A426AD022763745
FILE: 02 - Based On Bass - Danger Level (2001).flac
  Size: 46558582 Hash: 25D6AAC7CB74E02B53D0A043D7992962 Accuracy: -m0
  Conclusion: CDDA 100%
  Signature: FB90112D5174710FE7B2432AF256753DB6AC45BF
FILE: 01 - Daylight - Combine your Mind (2000).flac
  Size: 42544171 Hash: 82F0F2A0340993B441E33FC82476BFE7 Accuracy: -m0
  Conclusion: CDDA 100%
  Signature: 5C37F1123D4AE6A28EF476AAF423BC2AC80A5011

-

Спектрограмма:

Vol.3:

 

Vol.5:

     

Vol.6:

   

Vol.7:

   

Vol.8:

 

Видео

Время раздачи: Будни: после 16:00, время Московское. Выходные по мере возможности.

Igor 1968

Пост 06-Сен-2012 10:55

[Цитировать]

Boris1, не за что. Space это старое, доброе, вечное.

Boris1

Пост 06-Сен-2012 08:55

[Цитировать]

Igor 1968, огромное спасибо!

Igor 1968

Пост 05-Сен-2012 19:39

[Цитировать]

Space -Just Blue & Paris-France-Transit, Magic Fly & Deliverance (2000)- Год: 2000
Жанр: Electronic, Synth-pop, Disco
Продолжительность: 02:51:22
Кодек: WavPack
Битрейт: Lossless
Тип рипа: image + .cue + log
Наличие сканов: есть

Just Blue & Paris-France-Transit

Издатель: Ⓟ+Ⓒ 1978, 1983, 2000 Vogue P.I.P.|CD'Maximum' (Moscow). Made in Russia.
Формат издания: 2 LP in one CD, Compilation, Unofficial Release
Каталог: CDM 0300-416 (PAO # BP/032/2000 (00|01|14))
Продолжительность: 01:16:43
Трек лист:
Just Blue
01. Just Blue [04:28]
02. Final Signal [04:19]
03. Secret Dreams [04:28]
04. Symphony [04:55]
05. Save Your Love For Me [06:36]
06. Blue Tears [05:24]
07. My Love Is Music [05:44]
Paris-France-Transit
08. Paris France [05:35]
09. A Crime In Your Town [04:48]
10. Voice Of Jupiter [04:17]
11. Paintings [05:25]
12. Souvenir From Rio [04:19]
13. Ego [05:03]
14. Child [04:54]
15. Beyond Your Mind [06:21]

Отчёт ЕАС:

Код:
Exact Audio Copy V0.99 prebeta 5 from 4. May 2009
EAC extraction logfile from 4. May 2012, 0:10
Space / Just Blue & Paris-France-Transit
Used drive  : ASUS    DRW-24B3ST   Adapter: 0  ID: 0
Read mode               : Secure
Utilize accurate stream : Yes
Defeat audio cache      : Yes
Make use of C2 pointers : No
Read offset correction                      : 6
Overread into Lead-In and Lead-Out          : No
Fill up missing offset samples with silence : Yes
Delete leading and trailing silent blocks   : No
Null samples used in CRC calculations       : Yes
Used interface                              : Native Win32 interface for Win NT & 2000
Used output format : Internal WAV Routines
Sample format      : 44.100 Hz; 16 Bit; Stereo
TOC of the extracted CD
     Track |   Start  |  Length  | Start sector | End sector
    ---------------------------------------------------------
        1  |  0:00.00 |  4:28.42 |         0    |    20141
        2  |  4:28.42 |  4:19.70 |     20142    |    39636
        3  |  8:48.37 |  4:28.40 |     39637    |    59776
        4  | 13:17.02 |  4:55.40 |     59777    |    81941
        5  | 18:12.42 |  6:36.02 |     81942    |   111643
        6  | 24:48.44 |  5:24.40 |    111644    |   135983
        7  | 30:13.09 |  5:44.31 |    135984    |   161814
        8  | 35:57.40 |  5:35.08 |    161815    |   186947
        9  | 41:32.48 |  4:48.41 |    186948    |   208588
       10  | 46:21.14 |  4:17.50 |    208589    |   227913
       11  | 50:38.64 |  5:25.19 |    227914    |   252307
       12  | 56:04.08 |  4:19.63 |    252308    |   271795
       13  | 60:23.71 |  5:03.34 |    271796    |   294554
       14  | 65:27.30 |  4:54.55 |    294555    |   316659
       15  | 70:22.10 |  6:21.04 |    316660    |   345238
Range status and errors
Selected range
     Filename G:\SPACE\2000- Just Blue & Paris-France-Transit (RU Maximum • CDM 0300-416)\Space - Just Blue & Paris-France-Transit.wav
     Peak level 99.9 %
     Range quality 100.0 %
     Test CRC 46D4704B
     Copy CRC 46D4704B
     Copy OK
No errors occurred
AccurateRip summary
Track  1  accurately ripped (confidence 5)  [54AA8B82]
Track  2  accurately ripped (confidence 5)  [4ED2E598]
Track  3  accurately ripped (confidence 4)  [6F71427F]
Track  4  accurately ripped (confidence 5)  [8A703AF4]
Track  5  accurately ripped (confidence 5)  [0F61DCD3]
Track  6  accurately ripped (confidence 5)  [BC9CCEFA]
Track  7  accurately ripped (confidence 5)  [9B2AAA90]
Track  8  accurately ripped (confidence 4)  [0168F014]
Track  9  accurately ripped (confidence 4)  [42062E62]
Track 10  accurately ripped (confidence 3)  [585884C1]
Track 11  accurately ripped (confidence 4)  [0B95D54C]
Track 12  accurately ripped (confidence 4)  [3D916EE0]
Track 13  accurately ripped (confidence 4)  [CDE90A94]
Track 14  accurately ripped (confidence 4)  [FECF617D]
Track 15  accurately ripped (confidence 3)  [1F8026B8]
All tracks accurately ripped
End of status report

Отчёт auCDtect Task manager:

Код:
-----------------------
DON'T MODIFY THIS FILE
-----------------------
PERFORMER: auCDtect Task Manager, ver. 1.5.1RC4 build 1.5.1.5
Copyright (c) 2008-2010 y-soft. All rights reserved
http://y-soft.org
ANALYZER: auCDtect: CD records authenticity detector, version 0.8.2
Copyright (c) 2004 Oleg Berngardt. All rights reserved.
Copyright (c) 2004 Alexander Djourik. All rights reserved.
FILE: Space - Just Blue & Paris-France-Transit.wv
  Size: 515884776 Hash: C57B50CA4123ABAA108707FBEB46FFD9 Accuracy: -m0
  Conclusion: CDDA 100%
  Signature: 3DFE47BD5F0D3CC8AB5BE74473F554A563C31EB2

Notes :

• Two albums on one CD: Just Blue (℗1978 recorded at The Sidney Bechet Studio, Paris) and Paris-France-Transit (℗1983 recorded & mixed at The Sidney Bechet Studio, mastered at Top Master), original track order preserved.
• The CD label has "For Sale in Russia only", and there is a copyright warning in Russian on the tray insert.

Magic Fly & Deliverance

Издатель: Ⓟ+Ⓒ 1977, 2000 Vogue P.I.P.|C.G.D.|CD'Maximum' (Moscow). Made in Russia.
Формат издания: 2 LP in one CD, Compilation, Unofficial Release
Каталог: CDM 0300-415 (PAO # BP/032/2000 (00|01|14))
Продолжительность: 01:04:39
Трек лист:
Magic Fly
01. Fasten Seat Belt [06:01]
02. Ballad For Space Lovers [02:19]
03. Tango In Space [04:31]
04. Flying Nightmare [03:27]
05. Magic Fly [04:22]
06. Velvet Rape [04:30]
07. Carry On, Turn Me On [07:14]
Deliverance
08. Prison [06:18]
09. Let Me Know The Wonder [05:58]
10. Running In The City [04:15]
11. Air Force [04:17]
12. Baby's Paradise [05:26]
13. Deliverance [05:56]

Отчёт ЕАС:

Код:
Exact Audio Copy V0.99 prebeta 5 from 4. May 2009
EAC extraction logfile from 4. May 2012, 0:11
Space / Magic Fly & Deliverance
Used drive  : ASUS    DRW-24B3ST   Adapter: 0  ID: 1
Read mode               : Secure
Utilize accurate stream : Yes
Defeat audio cache      : Yes
Make use of C2 pointers : No
Read offset correction                      : 6
Overread into Lead-In and Lead-Out          : No
Fill up missing offset samples with silence : Yes
Delete leading and trailing silent blocks   : No
Null samples used in CRC calculations       : Yes
Used interface                              : Native Win32 interface for Win NT & 2000
Used output format : Internal WAV Routines
Sample format      : 44.100 Hz; 16 Bit; Stereo
TOC of the extracted CD
     Track |   Start  |  Length  | Start sector | End sector
    ---------------------------------------------------------
        1  |  0:00.00 |  6:01.18 |         0    |    27092
        2  |  6:01.18 |  2:19.12 |     27093    |    37529
        3  |  8:20.30 |  4:31.06 |     37530    |    57860
        4  | 12:51.36 |  3:27.61 |     57861    |    73446
        5  | 16:19.22 |  4:22.12 |     73447    |    93108
        6  | 20:41.34 |  4:30.72 |     93109    |   113430
        7  | 25:12.31 |  7:14.39 |    113431    |   146019
        8  | 32:26.70 |  6:18.46 |    146020    |   174415
        9  | 38:45.41 |  5:58.12 |    174416    |   201277
       10  | 44:43.53 |  4:15.19 |    201278    |   220421
       11  | 48:58.72 |  4:17.59 |    220422    |   239755
       12  | 53:16.56 |  5:26.10 |    239756    |   264215
       13  | 58:42.66 |  5:56.23 |    264216    |   290938
Range status and errors
Selected range
     Filename G:\SPACE\2000- Magic Fly & Deliverance (RU Maximum • CDM 0300-415)\Space - Magic Fly & Deliverance.wav
     Peak level 100.0 %
     Range quality 100.0 %
     Test CRC 1769038B
     Copy CRC 1769038B
     Copy OK
No errors occurred
AccurateRip summary
Track  1  accurately ripped (confidence 8)  [F3D2FF9E]
Track  2  accurately ripped (confidence 8)  [FACD5DB9]
Track  3  accurately ripped (confidence 8)  [C90F37B9]
Track  4  accurately ripped (confidence 8)  [B2DBFE1E]
Track  5  accurately ripped (confidence 9)  [D099270E]
Track  6  accurately ripped (confidence 8)  [FCD48B0D]
Track  7  accurately ripped (confidence 8)  [5462A0B4]
Track  8  accurately ripped (confidence 8)  [28A4E6A6]
Track  9  accurately ripped (confidence 8)  [890FC8D7]
Track 10  accurately ripped (confidence 8)  [BDD364BB]
Track 11  accurately ripped (confidence 8)  [7A969A98]
Track 12  accurately ripped (confidence 8)  [948E9D96]
Track 13  accurately ripped (confidence 2)  [E3C6B951]
All tracks accurately ripped
End of status report

Отчёт auCDtect Task manager:

Код:
-----------------------
DON'T MODIFY THIS FILE
-----------------------
PERFORMER: auCDtect Task Manager, ver. 1.5.1RC4 build 1.5.1.5
Copyright (c) 2008-2010 y-soft. All rights reserved
http://y-soft.org
ANALYZER: auCDtect: CD records authenticity detector, version 0.8.2
Copyright (c) 2004 Oleg Berngardt. All rights reserved.
Copyright (c) 2004 Alexander Djourik. All rights reserved.
FILE: Space - Magic Fly & Deliverance.wv
  Size: 410468595 Hash: 93D84E034344FFA926E5832074E5765A Accuracy: -m0
  Conclusion: CDDA 100%
  Signature: 1FC170CD1A4061053498668C41ECE0976912CB3D

Notes :

• Two albums on one CD: Magic Fly (℗1977 Recorded at The Sidney Bechet Studio, Paris) and Deliverance (℗1977 Recorded & Remixed at Studio Sydney Bechet, Paris, France), original track order preserved.
• The CD label has "For Sale in Russia only", and there is a copyright warning in Russian on the tray insert.

Igor 1968

Пост 13-Июн-2012 12:36

[Цитировать]

John Stanford - Deep Space (1999)- Год: 1999
Жанр: New Age, Ambient
Продолжительность: 00:54:51
Кодек: FLAC
Битрейт: Lossless
Тип рипа: image+.cue
Трек лист:
1. The Watchers (9:25)
2. Deep Space (8:09)
3. Aurora (9:58)
4. Sea Of Tranquility (7:42)
5. Far Centaurus (10:49)
6. The Edge (8:47)

Отчёт ЕАС:

Код:
Exact Audio Copy V1.0 beta 1 from 15. November 2010
EAC extraction logfile from 5. May 2011, 19:53
John Stanford / Deep Space
Used drive  : Optiarc DVD RW AD-5200A   Adapter: 0  ID: 1
Read mode               : Secure
Utilize accurate stream : Yes
Defeat audio cache      : Yes
Make use of C2 pointers : No
Read offset correction                      : 48
Overread into Lead-In and Lead-Out          : No
Fill up missing offset samples with silence : Yes
Delete leading and trailing silent blocks   : No
Null samples used in CRC calculations       : Yes
Used interface                              : Installed external ASPI interface
Used output format              : User Defined Encoder
Selected bitrate                : 192 kBit/s
Quality                         : High
Add ID3 tag                     : No
Command line compressor         : C:\Program Files\FLAC\flac.exe
Additional command line options :  -8 -V -T "ARTIST=%a" -T "TITLE=%t" -T "ALBUM=%g" -T "DATE=%y" -T "TRACKNUMBER=%n" -T "GENRE=%m" -T "COMMENT=EAC FLAC -8" %s
TOC of the extracted CD
     Track |   Start  |  Length  | Start sector | End sector
    ---------------------------------------------------------
        1  |  0:00.00 |  9:25.34 |         0    |    42408
        2  |  9:25.34 |  8:08.64 |     42409    |    79072
        3  | 17:34.23 |  9:57.62 |     79073    |   123909
        4  | 27:32.10 |  7:42.33 |    123910    |   158592
        5  | 35:14.43 | 10:49.10 |    158593    |   207277
        6  | 46:03.53 |  8:47.34 |    207278    |   246836
Range status and errors
Selected range
     Filename J:\music\goa\flac\0_waffles\0_prepare\John Stanford - Deep Space\John Stanford - Deep Space.wav
     Peak level 100.0 %
     Extraction speed 0.5 X
     Range quality 100.0 %
     Test CRC 4978FE9A
     Copy CRC 4978FE9A
     Copy OK
No errors occurred
AccurateRip summary
Track  1  not present in database
Track  2  not present in database
Track  3  not present in database
Track  4  not present in database
Track  5  not present in database
Track  6  not present in database
None of the tracks are present in the AccurateRip database
End of status report
==== Log checksum D0F406C7D202B2E8D5D28CFF97D50091056AAB4B2603BE718A74BB7A6F9174AA ====

Отчёт auCDtect Task manager:

Код:
-----------------------
DON'T MODIFY THIS FILE
-----------------------
PERFORMER: auCDtect Task Manager, ver. 1.5.1RC6 build 1.5.1.7
Copyright (c) 2008-2010 y-soft. All rights reserved
http://y-soft.org
ANALYZER: auCDtect: CD records authenticity detector, version 0.8.2
Copyright (c) 2004 Oleg Berngardt. All rights reserved.
Copyright (c) 2004 Alexander Djourik. All rights reserved.
FILE: John Stanford - Deep Space.flac
  Size: 348561883 Hash: 4817020DF2A01AB397AE7F5AF756B303 Accuracy: -m0
  Conclusion: CDDA 100%
  Signature: C00365714799CB23D1318D40CD548BB03CB3A602

Koralina

Пост 13-Янв-2012 18:36

[Цитировать]

Neil H / Delicate Touch Жанр: New Age
Страна-производитель диска: Англия
Год издания диска: 2005
Издатель (лейбл): MGMusic
Страна: Англия
Аудиокодек: APE (*.ape)
Тип рипа: image+.cue
Битрейт аудио: lossless
Продолжительность: 69:07
Источник (релизер): CD
Наличие сканов в содержимом раздачи: да
Треклист:
01 - Caverns Of The Subconscious
02 - Candlelight Dreams
03 - Moments In Silence
04 - Rekindling The Dream
05 - Forever Floating
06 - Spirit Guardian
07 - Landscape Of Dreams
08 - From The Depths Of Your Soul
09 - Delicate Touch

Лог создания рипа

Exact Audio Copy V1.0 beta 3 from 29. August 2011
Отчёт EAC об извлечении, выполненном 11. января 2012, 21:47
Neil H / Delicate Touch
Дисковод: _NEC DVD_RW ND-3540A Adapter: 0 ID: 0
Режим чтения : Достоверность
Использование точного потока : Да
Отключение кэша аудио : Да
Использование указателей C2 : Нет
Коррекция смещения при чтении : 48
Способность читать области Lead-in и Lead-out : Нет
Заполнение пропущенных сэмплов тишиной : Да
Удаление блоков с тишиной в начале и конце : Нет
При вычислениях CRC использовались нулевые сэмплы : Да
Интерфейс : Встроенный Win32-интерфейс для Win NT/2000
Выходной формат : Пользовательский кодировщик
Выбранный битрейт : 1024 kBit/s
Качество : Высокий
Добавление ID3-тега : Да
Утилита сжатия : C:\Program Files\Monkey's Audio\MAC.exe
Дополнительные параметры : %source% %dest% -c3000
TOC извлечённого CD
Трек | Старт | Длительность | Начальный сектор | Конечный сектор
---------------------------------------------------------------------
1 | 0:00.00 | 7:42.18 | 0 | 34667
2 | 7:42.18 | 8:30.30 | 34668 | 72947
3 | 16:12.48 | 6:39.10 | 72948 | 102882
4 | 22:51.58 | 6:44.27 | 102883 | 133209
5 | 29:36.10 | 9:30.27 | 133210 | 175986
6 | 39:06.37 | 5:59.36 | 175987 | 202947
7 | 45:05.73 | 6:40.74 | 202948 | 233021
8 | 51:46.72 | 8:44.14 | 233022 | 272335
9 | 60:31.11 | 8:36.28 | 272336 | 311063
Характеристики диапазона извлечения и сообщения об ошибках
Выбранный диапазон
Имя файла G:\Моя музыка\New Age & Meditative\Neil H - Delicate Touch\Neil H - Delicate Touch.wav
Пиковый уровень 100.0 %
Скорость извлечения 7.3 X
Качество диапазона 99.9 %
CRC теста 5E018358
CRC копии 5E018358
Копирование... OK
Ошибок не произошло
AccurateRip: сводка
Трек 1 : извлечено точно (доверие 1) [68826F0D] (AR v1)
Трек 2 : извлечено точно (доверие 1) [1F1EC94E] (AR v1)
Трек 3 : извлечено точно (доверие 1) [2D0A2690] (AR v1)
Трек 4 : извлечено точно (доверие 1) [AB82E6DC] (AR v1)
Трек 5 : извлечено точно (доверие 1) [5C368BB7] (AR v1)
Трек 6 : извлечено точно (доверие 1) [801C5E0D] (AR v1)
Трек 7 : извлечено точно (доверие 1) [818B3D5E] (AR v1)
Трек 8 : извлечено точно (доверие 1) [799DFEBC] (AR v1)
Трек 9 : извлечено точно (доверие 1) [47A21A2C] (AR v1)
Все треки извлечены точно
Конец отчёта
---- CUETools DB Plugin V2.1.3
[CTDB TOCID: 8cs36mcRC2oaOIddVm4XF6LeUCU-] found, Submit result: 8cs36mcRC2oaOIddVm4XF6LeUCU- has been confirmed
[255a2b8a] (1/1) Accurately ripped
==== Контрольная сумма отчёта B8145584BAEFB81BF0EC8CA94E91786A7665BDCAA47C2FE228B0768033AEE291 ====

Содержание индексной карты (.CUE)

REM GENRE New Age
REM DATE 2005
REM DISCID 85103309
PERFORMER "Neil H"
TITLE "Delicate Touch"
FILE "Neil H - Delicate Touch.ape" WAVE
TRACK 01 AUDIO
TITLE "Caverns of the Subconcious"
ISRC 000000000000
FLAGS DCP
INDEX 01 00:00:00
TRACK 02 AUDIO
TITLE "Candlelight Dreams"
ISRC 000000000000
FLAGS DCP
INDEX 01 07:42:18
TRACK 03 AUDIO
TITLE "Moments in Silence"
ISRC 000000000000
FLAGS DCP
INDEX 01 16:12:48
TRACK 04 AUDIO
TITLE "Rekindling the Dream"
ISRC 000000000000
FLAGS DCP
INDEX 01 22:51:58
TRACK 05 AUDIO
TITLE "Forever Floating"
ISRC 000000000000
FLAGS DCP
INDEX 01 29:36:10
TRACK 06 AUDIO
TITLE "Spirit Guardian"
ISRC 000000000000
FLAGS DCP
INDEX 01 39:06:37
TRACK 07 AUDIO
TITLE "Landscape of Dreams"
ISRC 000000000000
FLAGS DCP
INDEX 01 45:05:73
TRACK 08 AUDIO
TITLE "From the Depths of Your Soul"
ISRC 000000000000
FLAGS DCP
INDEX 01 51:46:72
TRACK 09 AUDIO
TITLE "Delicate Touch"
ISRC 000000000000
FLAGS DCP
INDEX 01 60:31:11

Koralina

Пост 15-Дек-2011 20:18

[Цитировать]

Chris Spheeris - The Best Of Chris Spheeris [lossless]
Жанр: newage
Год выпуска: 2001
Формат: FLAC (image + .cue)
Битрейт аудио: lossless
Продолжительность: 73:45
Трэклист:
1. The Arrow 5:21
2. Lovers and Friends 3:41
3. Enchantment 4:24
4. Magaya 6:44
5. Carino 4:10
6. Culture 5:03
7. Andalu 7:05
8. Pura Vida 3:49
9. Sapphire 5:00
10. Dancing with the Muse 5:56
11. Field of Tears 3:04
12. Allura 5:56
13. Orlando 4:45
14. Eros 5:30
15. Treasure of the Spirit 3:11
Доп. информация: Источник: edK (релизер неизвестен)

Log

EAC extraction logfile from 17. July 2003, 22:48 for CD
Chris Spheeris / The Best of Chris Spheeris: 1990-2000
Used drive : HL-DT-STCD-RW GCE-8400B Adapter: 0 ID: 1
Read mode : Secure with NO C2, accurate stream, disable cache
Read offset correction : 0
Overread into Lead-In and Lead-Out : No
Used output format : Internal WAV Routines
44.100 Hz; 16 Bit; Stereo
Other options :
Fill up missing offset samples with silence : Yes
Delete leading and trailing silent blocks : No
Installed external ASPI interface
Range status and errors
Selected range
Filename C:\My Documents\Range.wav
Peak level 100.0 %
Range quality 100.0 %
CRC 9B1C6174
Copy OK
No errors occured
End of status report

Koralina

Пост 15-Дек-2011 20:17

[Цитировать]

Chris Spheeris - Culture Страна: UN
Жанр: NewAge
Год выпуска: 1993
Формат: APE (image + .cue)
Битрейт аудио: lossless
Продолжительность: 49:14
Треклист:

01.Aria (4:50)
02.Margarita (4:49)
03.Embrace (4:10)
04.Elecktra (5:24)
05.Culture (5:06)
06.Sapphire (5:03)
07.Allura (5:57)
08.Bombay (5:16)
09.One (8:40)

Доп. информация:

Back

Отчёт EAC

Отчёт EAC об извлечении, выполненном 6. августа 2007, 22:06 для диска:
Chris Spheeris / Culture
Дисковод: PLEXTOR DVDR PX-716AL Adapter: 2 ID: 0
Режим чтения: Достоверный (C2: нет, Точный поток: да, Отключение кэша: да)
Коррекция смещения при чтении: 30
Способность читать области Lead-in и Lead-out : Нет
Выходной формат: Внутренние WAV-операции
44.100 Гц; 16 бит; стерео
Другие параметры:
Заполнение пропущенных сэмплов тишиной : Да
Удаление блоков с тишиной в начале и конце : Нет
Встроенный Win32-интерфейс для Win NT/2000
Характеристики диапазона извлечения и сообщения об ошибках
Выбранный диапазон
Имя файла Z:\Time\Temp\Chris Spheeris - Culture\Chris Spheeris - Culture.wav
Пиковый уровень 94.3 %
Качество диапазона 99.9 %
CRC D6BE563F
Копирование... OK
Ошибок не произошло
Конец отчёта

Koralina

Пост 15-Дек-2011 20:15

[Цитировать]

Chris Spheeris - Enchantment [lossless]
Жанр: newage
Год выпуска: 1990
Формат: FLAC (image + .cue)
Битрейт аудио: lossless
Продолжительность: 42:53
Трэклист:
1. Enchantment 4:31
2. Through the wall 4:53
3. Pura vida 3:50
4. Golden days 3:44
5. Love & understanding 4:50
6. First kiss 5:23
7. Across the frontiers 6:23
8. Many heavens 4:48
9. The mists Of Poe 4:28
Доп. информация:
Источник: edK (релизер неизвестен)

EAC Log

EAC extraction logfile from 1. October 2005, 0:44 for CD
Chris Spheeris & Paul Voudouris / Enchantment
Used drive : PLEXTOR CD-R PX-W1610A Adapter: 1 ID: 0
Read mode : Secure with NO C2, accurate stream, disable cache
Combined read/write offset correction : 0
Overread into Lead-In and Lead-Out : No
Used output format : Internal WAV Routines
44.100 Hz; 16 Bit; Stereo
Other options :
Fill up missing offset samples with silence : Yes
Delete leading and trailing silent blocks : No
Installed external ASPI interface
Range status and errors
Selected range
Filename G:\Temp\Chris Spheeris - Enchantment\CDImage.wav
Peak level 99.9 %
Range quality 100.0 %
CRC 5218FBBB
Copy OK
No errors occured
End of status report

Koralina

Пост 15-Дек-2011 20:13

[Цитировать]

Chris Spheeris, Paul Voudouris - Europa [Essence records]
Жанр: New Age, Ambient, Instrumental
Год выпуска диска: 1995
Производитель диска: US
Аудио кодек: FLAC
Тип рипа: image+.cue
Битрейт аудио: lossless
Продолжительность: 51:47
Трэклист:
1 Orlando 4:56
2 Seveness 5:29
3 Laguna 6:36
4 Pavane 3:01
5 Bellaire 5:40
6 Aqualuna 5:17
7 Lanotte 6:01
8 Taiku 6:32
9 Maya 8:16
Доп. информация: Пожалуй, один из моих самых любимых дисков как и Chris Spheeris'a, так и музыки new age в целом. Chris Spheeris настолько здорово владеет своим неповторимым музыкальным стилем, что каждый его альбом - это невероятное и удивительное путешествие! Путешествие в вымышленный им мир new age музыки. При этом его музыкальный почерк настолько оригинален, что он сильно выделяется среди других исполнителей подобной музыки прежде всего глубизной, неповторимыми аранжировками и кажущимсеся на первый взгляд простыми мелодиями. В компании с Paul Voudouris его миры становятся более обтекаемыми, загадочными и сказочными.
В общем, эта музыка однозначно имеет статус - must have!
Копия с оригинального диска c обложками.

Лог извлечения EAC

Exact Audio Copy V0.99 prebeta 4 from 23. January 2008
Отчёт EAC об извлечении, выполненном 11. ноября 2008, 22:20
Chris Spheeris, Paul Voudouris / Europa
Дисковод: TSSTcorpCD/DVDW SH-S183A Adapter: 0 ID: 1
Режим чтения : Достоверность
Использование точного потока : Да
Отключение кэша аудио : Да
Использование указателей C2 : Нет
Коррекция смещения при чтении : 6
Способность читать области Lead-in и Lead-out : Нет
Заполнение пропущенных сэмплов тишиной : Да
Удаление блоков с тишиной в начале и конце : Нет
При вычислениях CRC использовались нулевые сэмплы : Да
Интерфейс : Встроенный Win32-интерфейс для Win NT/2000
Выходной формат : Внутренние WAV-операции
Формат сэмплов : 44.100 Гц; 16 бит; стерео
TOC извлечённого CD
Трек | Старт | Длительность | Начальный сектор | Конечный сектор
---------------------------------------------------------------------
1 | 0:00.32 | 4:55.55 | 32 | 22211
2 | 4:56.12 | 5:28.70 | 22212 | 46881
3 | 10:25.07 | 6:36.08 | 46882 | 76589
4 | 17:01.15 | 3:00.72 | 76590 | 90161
5 | 20:02.12 | 5:39.68 | 90162 | 115654
6 | 25:42.05 | 5:16.62 | 115655 | 139416
7 | 30:58.67 | 6:00.43 | 139417 | 166459
8 | 36:59.35 | 6:31.60 | 166460 | 195844
9 | 43:31.20 | 8:16.20 | 195845 | 233064
Характеристики диапазона извлечения и сообщения об ошибках
Выбранный диапазон
Имя файла E:\Torrents\Chris Spheeris, Paul Voudouris - 1996 - Europe\Chris Spheeris, Paul Voudouris - Europa.wav
Пиковый уровень 100.0 %
Качество диапазона 100.0 %
CRC теста 396030C9
CRC копии 396030C9
Копирование... OK
Ошибок не произошло
AccurateRip: сводка
Трек 1 нет в базе данных
Трек 2 нет в базе данных
Трек 3 нет в базе данных
Трек 4 нет в базе данных
Трек 5 нет в базе данных
Трек 6 нет в базе данных
Трек 7 нет в базе данных
Трек 8 нет в базе данных
Трек 9 нет в базе данных
Ни одного трека нет в базе AccurateRip
Конец отчёта

Koralina

Пост 15-Дек-2011 20:10

[Цитировать]

Chris Spheeris - The Best
Жанр: New Age, Instrumental
Год выпуска диска: 2003
Производитель диска: Россия, ТМЕ/Правительство звука, ПРЗ CD8592, LC ВАФ № 77-79 от 14.01.2003
Аудио кодек: APE
Тип рипа: image+.cue
Битрейт аудио: lossless
Продолжительность: 73.46

Трэклист

01. Культура [0:05:05.17]
02. Средиземноморье [0:05:35.19]
03. Пришествие [0:05:21.24]
04. Любовь и друзья [0:03:44.09]
05. Трепет [0:05:10.16]
06. Ария [0:04:49.03]
07. Душа [0:04:50.18]
08. Да здравствует! [0:04:04.39]
09. Эрос [0:05:32.43]
10. Маргарита [0:04:48.65]
11. Алегория [0:05:31.43]
12. Медленный танец [0:04:32.21]
13. Андалу [0:07:07.16]
14. Бесконечность [0:03:04.08]
15. Джулльетта [0:04:29.60]

Log EAC

Exact Audio Copy V0.99 prebeta 4 from 23. January 2008
Отчёт EAC об извлечении, выполненном 5. декабря 2008, 0:09
Chris Spheeris / The Best
Дисковод: PIONEER DVD-RW DVR-112 Adapter: 0 ID: 0
Режим чтения : Достоверность
Использование точного потока : Да
Отключение кэша аудио : Да
Использование указателей C2 : Нет
Коррекция смещения при чтении : 48
Способность читать области Lead-in и Lead-out : Нет
Заполнение пропущенных сэмплов тишиной : Да
Удаление блоков с тишиной в начале и конце : Нет
При вычислениях CRC использовались нулевые сэмплы : Да
Интерфейс : Установленный внешний ASPI-интерфейс
Выходной формат : Внутренние WAV-операции
Формат сэмплов : 44.100 Гц; 16 бит; стерео
TOC извлечённого CD
Трек | Старт | Длительность | Начальный сектор | Конечный сектор
---------------------------------------------------------------------
1 | 0:00.00 | 5:05.17 | 0 | 22891
2 | 5:05.17 | 5:35.19 | 22892 | 48035
3 | 10:40.36 | 5:21.24 | 48036 | 72134
4 | 16:01.60 | 3:44.09 | 72135 | 88943
5 | 19:45.69 | 5:10.16 | 88944 | 112209
6 | 24:56.10 | 4:49.03 | 112210 | 133887
7 | 29:45.13 | 4:50.18 | 133888 | 155655
8 | 34:35.31 | 4:04.39 | 155656 | 173994
9 | 38:39.70 | 5:32.43 | 173995 | 198937
10 | 44:12.38 | 4:48.65 | 198938 | 220602
11 | 49:01.28 | 5:31.43 | 220603 | 245470
12 | 54:32.71 | 4:32.21 | 245471 | 265891
13 | 59:05.17 | 7:07.16 | 265892 | 297932
14 | 66:12.33 | 3:04.08 | 297933 | 311740
15 | 69:16.41 | 4:29.60 | 311741 | 331975
Характеристики диапазона извлечения и сообщения об ошибках
Выбранный диапазон
Имя файла C:\Documents and Settings\Serg\Рабочий стол\Новая папка (3)\Chris Spheeris - The Best.wav
Пиковый уровень 100.0 %
Качество диапазона 99.9 %
CRC копии F6C6E6B9
Копирование... OK
Ошибок не произошло
Конец отчёта

Отчет Tau Analyzer

 

Текущее время: Сегодня 18:37

Часовой пояс: GMT + 3