Сегодня идет свободное скачивание без начисления Download

Результатов поиска: 1

Автор Сообщение

p2000s

Пост 27-Май-2013 09:12

[Цитировать]

Баста - Баста 4-Label: Газгольдер-Рекорд. Made in RU. Catalog #: CDG 020/2013- Страна: Россия
Жанр: Rap, Hip-Hop
Год выпуска: 2013
Формат: FLAC (image + .cue)
Битрейт аудио: lossless
Продолжительность: 01:19:38
Трэклист:
01. Интро [04:49]
02. Это дороже денег [05:08]
03. Мама [04:14]
04. Листья пуэра под кипяток [03:58]
05. Вселенная (ft. Тати) [03:27]
06. Рэп, который по - лютому прёт [04:47]
07. Джузеппе (ft. Смоки Мо) [03:31]
08. С надеждой на крылья (ft. группа Нервы) [05:25]
09. CrazyMFLove [04:56]
10. Пуэрчик покрепче [04:49]
11. Я или ты (ft. Тати) [04:28]
12. Грустно (ft. Green Grey) [04:54]
13. Пар [04:15]
14. ЧК [05:56]
15. Одна любовь (ft. Рем Дигга) [05:26]
16. Райские яблоки [04:00]
17. Это всё (ft. хор Адели) [05:28]
-Сайт

Log Exact Audio Copy:

Exact Audio Copy V0.99 prebeta 3 from 28. July 2007
Отчёт EAC об извлечении, выполненном 22. мая 2013, 20:49
Баста / 4
Дисковод: Optiarc DVD RW AD-7203A Adapter: 0 ID: 0
Режим чтения : Достоверность
Использование точного потока : Да
Отключение кэша аудио : Да
Использование указателей C2 : Нет
Коррекция смещения при чтении : 48
Способность читать области Lead-in и Lead-out : Нет
Заполнение пропущенных сэмплов тишиной : Да
Удаление блоков с тишиной в начале и конце : Нет
При вычислениях CRC использовались нулевые сэмплы : Да
Интерфейс : Встроенный Win32-интерфейс для Win NT/2000
Выходной формат : Внутренние WAV-операции
Формат сэмплов : 44.100 Гц; 16 бит; стерео
TOC извлечённого CD
Трек | Старт | Длительность | Начальный сектор | Конечный сектор
---------------------------------------------------------------------
1 | 0:00.00 | 4:49.44 | 0 | 21718
2 | 4:49.44 | 5:08.62 | 21719 | 44880
3 | 9:58.31 | 4:14.63 | 44881 | 63993
4 | 14:13.19 | 3:58.38 | 63994 | 81881
5 | 18:11.57 | 3:27.64 | 81882 | 97470
6 | 21:39.46 | 4:47.41 | 97471 | 119036
7 | 26:27.12 | 3:31.25 | 119037 | 134886
8 | 29:58.37 | 5:25.48 | 134887 | 159309
9 | 35:24.10 | 4:56.31 | 159310 | 181540
10 | 40:20.41 | 4:49.10 | 181541 | 203225
11 | 45:09.51 | 4:28.05 | 203226 | 223330
12 | 49:37.56 | 4:54.33 | 223331 | 245413
13 | 54:32.14 | 4:15.05 | 245414 | 264543
14 | 58:47.19 | 5:56.18 | 264544 | 291261
15 | 64:43.37 | 5:26.02 | 291262 | 315713
16 | 70:09.39 | 4:00.74 | 315714 | 333787
17 | 74:10.38 | 5:28.22 | 333788 | 358409
Характеристики диапазона извлечения и сообщения об ошибках
Выбранный диапазон
Имя файла D:\Rip-flacmusic.ru\Basta - 4 (2013)\Баста - 4.wav
Пиковый уровень 100.0 %
Качество диапазона 100.0 %
CRC теста 6DD25F58
CRC копии 6DD25F58
Копирование... OK
Ошибок не произошло
AccurateRip: сводка
Трек 1 нет в базе данных
Трек 2 нет в базе данных
Трек 3 нет в базе данных
Трек 4 нет в базе данных
Трек 5 нет в базе данных
Трек 6 нет в базе данных
Трек 7 нет в базе данных
Трек 8 нет в базе данных
Трек 9 нет в базе данных
Трек 10 нет в базе данных
Трек 11 нет в базе данных
Трек 12 нет в базе данных
Трек 13 нет в базе данных
Трек 14 нет в базе данных
Трек 15 нет в базе данных
Трек 16 нет в базе данных
Трек 17 нет в базе данных
Ни одного трека нет в базе AccurateRip
Конец отчёта

Log AudioChecker:

AUDIOCHECKER v2.0 beta (build 457) - by Dester - opdester@freemail.hu
~~~~~~~~~~~~~~~~~~~~~~~~~~~~~~~~~~
-=== НЕ РЕДАКТИРУЙТЕ ЭТОТ ФАЙЛ! ===-
Путь: ...\Basta - 4 (2013)
1 -=- Баста - 4.wav -=- CDDA (100%)
239162388
Время раздачи: 24/7
 

Текущее время: Сегодня 20:50

Часовой пояс: GMT + 3